<?xml version="1.0" standalone="no"?>
<!DOCTYPE svg PUBLIC "-//W3C//DTD SVG 1.1//EN" "http://www.w3.org/Graphics/SVG/1.1/DTD/svg11.dtd" >
<svg xmlns="http://www.w3.org/2000/svg">
<metadata>Generated by IcoMoon</metadata>
<defs>
<font id="icomoon" horiz-adv-x="512">
<font-face units-per-em="512" ascent="480" descent="-32" />
<missing-glyph horiz-adv-x="512" />
<glyph unicode="&#x20;" d="" horiz-adv-x="256" />
<glyph unicode="&#xe600;" d="M512 184.778l-256 198.713-256-198.714v81.019l256 198.713 256-198.714zM448 192v-192h-128v128h-128v-128h-128v192l192 144z" />
<glyph unicode="&#xe602;" d="M64-16v256h48v80c0 70.688 57.296 128 128 128h16c70.688 0 128-57.312 128-128v-80h48v-256h-368zM235.904 115.408l-11.904-83.408h48l-11.92 83.408c11.664 4.768 19.92 16.208 19.92 29.6 0 17.664-14.336 32-32 32-17.68 0-32-14.336-32-32 0-13.392 8.24-24.832 19.904-29.6zM336 312c0 48.608-39.408 88-88 88-48.608 0-88-39.392-88-88v-72h176v72z" />
<glyph unicode="&#xe603;" d="M464 240v72c0 48.608-39.408 88-88 88-48.608 0-88-39.392-88-88v-73.136h80v-254.864h-368v256h240v80c0 70.688 57.296 128 128 128h16c70.688 0 128-57.312 128-128v-80h-48zM184 176.992c-17.68 0-32-14.336-32-32 0-13.392 8.24-24.832 19.904-29.6l-11.904-83.392h48l-11.92 83.408c11.664 4.768 19.92 16.208 19.92 29.6 0 17.664-14.336 31.984-32 31.984z" />
<glyph unicode="&#xe604;" d="M416 0l96 256h-416l-96-256zM64 288l-64-288v416h144l64-64h208v-64z" />
<glyph unicode="&#xe605;" d="M463.906 480h-144.281c-26.453 0-63.398-15.303-82.102-34.007l-223.495-223.495c-18.704-18.704-18.704-49.312 0-68.016l172.455-172.453c18.704-18.705 49.311-18.705 68.015 0l223.495 223.494c18.704 18.705 34.007 55.651 34.007 82.102v144.281c0 26.452-21.643 48.094-48.094 48.094zM400 320c-26.51 0-48 21.49-48 48s21.49 48 48 48 48-21.49 48-48-21.49-48-48-48z" />
<glyph unicode="&#xe606;" d="M496 448h-112c-26.4 0-63.273-15.273-81.941-33.941l-188.118-188.118c-18.667-18.667-18.667-49.214 0-67.882l140.118-140.117c18.667-18.668 49.214-18.668 67.882 0l188.117 188.117c18.669 18.668 33.942 55.541 33.942 81.941v112c0 26.4-21.6 48-48 48zM432 288c-26.51 0-48 21.49-48 48s21.49 48 48 48 48-21.49 48-48-21.49-48-48-48zM43.313 180.687l171.189-171.189c-18.132-9.58-41.231-6.769-56.443 8.444l-140.118 140.117c-18.667 18.668-18.667 49.215 0 67.882l188.118 188.118c18.668 18.668 55.541 33.941 81.941 33.941l-244.687-244.686c-6.222-6.223-6.222-16.404 0-22.627z" horiz-adv-x="544" />
<glyph unicode="&#xe607;" d="M160 448h-128v-128h128v128zM192 480v0-192h-192v192h192zM64 416h64v-64h-64zM480 448h-128v-128h128v128zM512 480v0-192h-192v192h192zM384 416h64v-64h-64zM160 128h-128v-128h128v128zM192 160v0-192h-192v192h192zM64 96h64v-64h-64zM224 480h32v-32h-32zM256 448h32v-32h-32zM224 416h32v-32h-32zM256 384h32v-32h-32zM224 352h32v-32h-32zM256 320h32v-32h-32zM224 288h32v-32h-32zM224 224h32v-32h-32zM256 192h32v-32h-32zM224 160h32v-32h-32zM256 128h32v-32h-32zM224 96h32v-32h-32zM256 64h32v-32h-32zM224 32h32v-32h-32zM256 0h32v-32h-32zM480 224h32v-32h-32zM32 224h32v-32h-32zM64 256h32v-32h-32zM0 256h32v-32h-32zM128 256h32v-32h-32zM160 224h32v-32h-32zM192 256h32v-32h-32zM288 224h32v-32h-32zM320 256h32v-32h-32zM352 224h32v-32h-32zM384 256h32v-32h-32zM416 224h32v-32h-32zM448 256h32v-32h-32zM480 160h32v-32h-32zM288 160h32v-32h-32zM320 192h32v-32h-32zM352 160h32v-32h-32zM416 160h32v-32h-32zM448 192h32v-32h-32zM480 96h32v-32h-32zM288 96h32v-32h-32zM320 128h32v-32h-32zM384 128h32v-32h-32zM416 96h32v-32h-32zM448 128h32v-32h-32zM480 32h32v-32h-32zM320 64h32v-32h-32zM352 32h32v-32h-32zM384 64h32v-32h-32zM416 32h32v-32h-32zM320 0h32v-32h-32zM384 0h32v-32h-32zM448 0h32v-32h-32z" />
<glyph unicode="&#xe609;" d="M423.609 192c17.6 0 35.956 13.846 40.791 30.769l46.418 162.463c4.835 16.922-5.609 30.768-23.209 30.768h-327.609c0 35.346-28.654 64-64 64h-96v-64h96v-272c0-26.51 21.49-48 48-48h304c17.673 0 32 14.327 32 32s-14.327 32-32 32h-288v32h263.609zM160 352h289.403l-27.429-96h-261.974v96zM192 8c0-22-18-40-40-40h-16c-22 0-40 18-40 40v16c0 22 18 40 40 40h16c22 0 40-18 40-40v-16zM480 8c0-22-18-40-40-40h-16c-22 0-40 18-40 40v16c0 22 18 40 40 40h16c22 0 40-18 40-40v-16z" />
<glyph unicode="&#xe60a;" d="M488.791 382.769c-16.992 4.854-34.705-4.985-39.56-21.978l-2.511-8.791h-298.471l-4.496 35.969c-2.002 16.014-15.615 28.031-31.753 28.031h-80c-17.673 0-32-14.327-32-32s14.327-32 32-32h51.751l28.496-227.969c2.002-16.013 15.615-28.031 31.753-28.031h272c14.287 0 26.844 9.472 30.769 23.209l64 224c4.855 16.993-4.985 34.705-21.978 39.56zM256 224v32h63.998v-32h-63.998zM319.998 192v-32h-63.998v32h63.998zM256 288v32h63.998v-32h-63.998zM152.249 320h71.751v-32h-67.751l-4 32zM160.249 256h63.751v-32h-59.751l-4 32zM168.249 192h55.751v-32h-51.751l-4 32zM391.862 160h-39.864v32h49.007l-9.143-32zM410.148 224h-58.15v32h67.293l-9.143-32zM428.434 288h-76.436v32h85.579l-9.143-32zM128 16c0 26.51 21.49 48 48 48s48-21.49 48-48c0-26.51-21.49-48-48-48s-48 21.49-48 48zM320 16c0 26.51 21.49 48 48 48s48-21.49 48-48c0-26.51-21.49-48-48-48s-48 21.49-48 48z" />
<glyph unicode="&#xe60b;" d="M296 256h-8v96c0 52.935-43.065 96-96 96h-64c-52.935 0-96-43.065-96-96v-96h-8c-13.2 0-24-10.8-24-24v-240c0-13.2 10.8-24 24-24h272c13.2 0 24 10.8 24 24v240c0 13.2-10.8 24-24 24zM192 32h-64l13.92 69.6c-8.404 5.766-13.92 15.437-13.92 26.4 0 17.673 14.327 32 32 32s32-14.327 32-32c0-10.963-5.516-20.634-13.92-26.4l13.92-69.6zM224 256h-128v96c0 17.645 14.355 32 32 32h64c17.645 0 32-14.355 32-32v-96z" />
<glyph unicode="&#xe60c;" d="M256 416c-123.712 0-224-100.288-224-224s100.288-224 224-224 224 100.288 224 224-100.288 224-224 224zM256 12c-99.412 0-180 80.589-180 180 0 99.412 80.588 180 180 180 99.411 0 180-80.588 180-180 0-99.411-80.589-180-180-180zM467.392 336.413c8.021 14.026 12.608 30.271 12.608 47.587 0 53.020-42.98 96-96 96-30.909 0-58.401-14.611-75.96-37.298 65.942-13.618 122.603-52.599 159.352-106.289zM203.96 442.702c-17.558 22.687-45.051 37.298-75.96 37.298-53.020 0-96-42.98-96-96 0-17.316 4.587-33.561 12.608-47.587 36.75 53.69 93.411 92.671 159.352 106.289zM224 320h32v-160h-32v160zM256 192h96v-32h-96v32z" />
<glyph unicode="&#xe60d;" d="M256.001 383.394v32.606h64v32c0 17.673-14.327 32-32.001 32h-95.999c-17.673 0-32-14.327-32-32v-32h64v-32.606c-107.399-8.169-192-97.901-192-207.394 0-114.875 93.125-208 208-208s208 93.125 208 208c0 109.492-84.601 199.224-192 207.394zM353.138 62.863c-30.221-30.22-70.399-46.863-113.137-46.863s-82.917 16.643-113.137 46.863c-30.22 30.22-46.863 70.4-46.863 113.137s16.643 82.917 46.863 113.137c29.020 29.019 67.224 45.509 108.057 46.774l-10.839-157.010c-0.93-13.145 6.232-18.901 15.918-18.901s16.849 5.756 15.918 18.901l-10.838 157.011c40.833-1.266 79.038-17.756 108.058-46.775 30.22-30.22 46.863-70.4 46.863-113.137s-16.643-82.917-46.863-113.137z" />
<glyph unicode="&#xe60e;" d="M128 448h256v-64h-256zM480 352h-448c-17.6 0-32-14.4-32-32v-160c0-17.6 14.398-32 32-32h96v-128h256v128h96c17.6 0 32 14.4 32 32v160c0 17.6-14.4 32-32 32zM352 32h-192v160h192v-160zM487.2 304c0-12.813-10.387-23.2-23.199-23.2s-23.201 10.387-23.201 23.2 10.388 23.2 23.201 23.2c12.813 0 23.199-10.387 23.199-23.2z" />
<glyph unicode="&#xe60f;" d="M384 448h-64c-52.935 0-96-43.065-96-96v-96h-200c-13.2 0-24-10.8-24-24v-240c0-13.2 10.8-24 24-24h272c13.2 0 24 10.8 24 24v240c0 13.2-10.8 24-24 24h-8v96c0 17.645 14.355 32 32 32h64c17.645 0 32-14.355 32-32v-96h64v96c0 52.935-43.065 96-96 96zM192 32h-64l13.92 69.6c-8.404 5.766-13.92 15.437-13.92 26.4 0 17.673 14.327 32 32 32s32-14.327 32-32c0-10.963-5.516-20.634-13.92-26.4l13.92-69.6z" />
<glyph unicode="&#xe610;" d="M510.624 393.6l-46.624-185.6c0-2.224-0.448-4.32-1.248-6.224-1.632-3.84-4.688-6.912-8.512-8.528-1.92-0.816-4.032-1.248-6.24-1.248h-304l12.8-64h275.2c8.848 0 16-7.152 16-16s-7.152-16-16-16h-288c-8.848 0-16 7.152-16 16l-60.8 304h-51.2c-8.832 0-16 7.168-16 16s7.168 16 16 16h64c8.848 0 16-7.168 16-16l3.2-16h396.8c8.848 0 16-7.168 16-16 0-2.288-0.512-4.432-1.376-6.4zM137.6 224h54.4v160h-86.4l32-160zM288 384h-80v-160h80v160zM384 384h-80v-160h80v160zM400 384v-160h36.048l40.528 160h-76.576zM176 64c26.512 0 48-21.504 48-48s-21.488-48-48-48-48 21.504-48 48 21.488 48 48 48zM176 0c8.848 0 16 7.152 16 16s-7.152 16-16 16-16-7.152-16-16 7.152-16 16-16zM400 64c26.512 0 48-21.504 48-48s-21.488-48-48-48-48 21.504-48 48 21.488 48 48 48zM400 0c8.848 0 16 7.152 16 16s-7.152 16-16 16-16-7.152-16-16 7.152-16 16-16z" />
<glyph unicode="&#xe611;" d="M380.931-32c56.863 103.016 66.444 260.153-156.931 254.912v-126.912l-192 192 192 192v-124.186c267.481 6.971 297.285-236.107 156.931-387.814z" />
<glyph unicode="&#xe612;" d="M288 355.814v124.186l192-192-192-192v126.912c-223.375 5.241-213.794-151.896-156.93-254.912-140.356 151.707-110.55 394.785 156.93 387.814z" />
<glyph unicode="&#xe613;" d="M131.070 480c-56.864-103.016-66.445-260.152 156.93-254.912v126.912l192-192-192-192v124.186c-267.48-6.971-297.286 236.107-156.93 387.814z" />
<glyph unicode="&#xe614;" d="M224 92.186v-124.186l-192 192 192 192v-126.912c223.375-5.24 213.794 151.896 156.931 254.912 140.355-151.707 110.55-394.785-156.931-387.814z" />
<glyph unicode="&#xe615;" d="M311.413 128.632c-11.055 1.759-11.307 32.157-11.307 32.157s32.484 32.158 39.564 75.401c19.045 0 30.809 45.973 11.761 62.148 0.795 17.027 24.48 133.662-95.431 133.662s-96.225-116.635-95.432-133.662c-19.047-16.175-7.285-62.148 11.761-62.148 7.079-43.243 39.564-75.401 39.564-75.401s-0.252-30.398-11.307-32.157c-35.61-5.666-168.586-64.317-168.586-128.632h448c0 64.315-132.976 122.966-168.587 128.632z" />
<glyph unicode="&#xe616;" d="M367.497 77.313c-9.476 1.494-9.692 27.327-9.692 27.327s27.844 27.328 33.912 64.076c16.326 0 26.407 39.069 10.082 52.814 0.681 14.47 20.984 113.588-81.799 113.588s-82.479-99.118-81.799-113.588c-16.327-13.745-6.244-52.814 10.081-52.814 6.067-36.748 33.913-64.076 33.913-64.076s-0.216-25.833-9.692-27.327c-30.524-4.816-144.503-54.658-144.503-109.313h384c0 54.655-113.979 104.497-144.503 109.313zM172.027 68.595c22.047 13.575 48.813 26.154 70.769 33.712-7.876 11.216-16.647 26.468-22.165 44.531-7.703 6.283-13.972 15.266-17.999 26.301-4.033 11.052-5.561 23.426-4.304 34.842 0.902 8.196 3.239 15.833 6.825 22.544-2.175 23.293-3.707 69.017 26.224 102.366 11.607 12.933 26.278 22.23 43.85 27.843-3.137 32.38-19.58 70.385-83.227 70.385-102.782 0-82.479-99.118-81.799-113.588-16.327-13.745-6.244-52.814 10.081-52.814 6.067-36.748 33.913-64.076 33.913-64.076s-0.216-25.833-9.692-27.327c-30.524-4.817-144.503-54.659-144.503-109.314h164.798c2.355 1.537 4.753 3.070 7.229 4.595z" />
<glyph unicode="&#xe618;" d="M160 384c0 53.019 42.981 96 96 96s96-42.981 96-96c0-53.019-42.981-96-96-96s-96 42.981-96 96zM384.039 256h-17.712l-99.552-202.122 37.225 186.122-48 48-48-48 37.225-186.122-99.551 202.122h-17.712c-63.962 0-63.962-42.993-63.962-96v-160h384v160c0 53.007 0 96-63.961 96z" />
<glyph unicode="&#xe619;" d="M192 416c0 35.346 28.654 64 64 64s64-28.654 64-64c0-35.346-28.654-64-64-64s-64 28.654-64 64zM327.765 359.765c0 35.346 28.654 64 64 64s64-28.654 64-64c0-35.346-28.654-64-64-64s-64 28.654-64 64zM416 224c0 17.673 14.327 32 32 32s32-14.327 32-32c0-17.673-14.327-32-32-32s-32 14.327-32 32zM359.765 88.235c0 17.673 14.327 32 32 32s32-14.327 32-32c0-17.673-14.327-32-32-32s-32 14.327-32 32zM224.001 32c0 0 0 0 0 0 0 17.673 14.327 32 32 32s32-14.327 32-32c0 0 0 0 0 0 0-17.673-14.327-32-32-32s-32 14.327-32 32zM88.236 88.235c0 0 0 0 0 0 0 17.673 14.327 32 32 32s32-14.327 32-32c0 0 0 0 0 0 0-17.673-14.327-32-32-32s-32 14.327-32 32zM72.236 359.765c0 0 0 0 0 0 0 26.51 21.49 48 48 48s48-21.49 48-48c0 0 0 0 0 0 0-26.51-21.49-48-48-48s-48 21.49-48 48zM28 224c0 19.882 16.117 36 36 36s36-16.118 36-36c0-19.882-16.118-36-36-36s-36 16.118-36 36z" />
<glyph unicode="&#xe61a;" d="M256 480c-139.374 0-252.729-111.381-255.924-249.987 2.96 120.932 94.916 217.987 207.924 217.987 114.875 0 208-100.288 208-224 0-26.51 21.49-48 48-48s48 21.49 48 48c0 141.385-114.615 256-256 256zM256-32c139.374 0 252.729 111.381 255.924 249.987-2.96-120.932-94.916-217.987-207.924-217.987-114.875 0-208 100.288-208 224 0 26.51-21.49 48-48 48s-48-21.49-48-48c0-141.385 114.615-256 256-256z" />
<glyph unicode="&#xe61b;" d="M512 480v-192l-69.13 69.13-106-106-53.74 53.74 106 106-69.13 69.13zM122.87 410.87l106-106-53.74-53.74-106 106-69.13-69.13v192h192zM442.87 90.87l69.13 69.13v-192h-192l69.13 69.13-106 106 53.74 53.74zM228.87 143.13l-106-106 69.13-69.13h-192v192l69.13-69.13 106 106z" />
<glyph unicode="&#xe61c;" d="M32 192h192v-192l-69.13 69.13-101-101-53.74 53.74 101 101zM410.87 122.87l101-101-53.74-53.74-101 101-69.13-69.13v192h192zM480 256h-192v192l69.13-69.13 101 101 53.74-53.74-101-101zM154.87 378.87l69.13 69.13v-192h-192l69.13 69.13-101 101 53.74 53.74z" />
<glyph unicode="&#xe61e;" d="M512 175.953v96.094l-73.387 12.231c-2.979 9.066-6.611 17.834-10.847 26.25l43.227 60.517-67.948 67.949-60.413-43.152c-8.455 4.277-17.269 7.944-26.384 10.951l-12.201 73.207h-96.094l-12.201-73.208c-9.115-3.007-17.929-6.674-26.383-10.951l-60.414 43.152-67.949-67.949 43.227-60.518c-4.235-8.415-7.867-17.183-10.846-26.249l-73.387-12.23v-96.094l73.559-12.26c2.98-8.984 6.605-17.674 10.821-26.015l-43.374-60.724 67.949-67.948 60.827 43.447c8.301-4.175 16.945-7.764 25.882-10.717l12.289-73.736h96.094l12.289 73.737c8.937 2.953 17.581 6.542 25.883 10.716l60.826-43.446 67.948 67.948-43.372 60.723c4.216 8.341 7.839 17.031 10.82 26.016l73.559 12.259zM256 160c-35.346 0-64 28.653-64 64s28.654 64 64 64c35.347 0 64-28.654 64-64s-28.653-64-64-64z" />
<glyph unicode="&#xe620;" d="M416 384v64h-320v-64h-96v-64c0-53.019 42.979-96 96-96 10.038 0 19.715 1.543 28.81 4.401 23.087-33.004 58.304-56.898 99.19-65.198v-99.203h-32c-35.347 0-64-28.653-64-64h256c0 35.347-28.653 64-64 64h-32v99.203c40.886 8.3 76.103 32.193 99.19 65.198 9.095-2.858 18.772-4.401 28.81-4.401 53.021 0 96 42.981 96 96v64h-96zM96 262c-31.981 0-58 26.019-58 58v32h58v-32c0-20.093 3.715-39.316 10.477-57.034-3.401-0.623-6.899-0.966-10.477-0.966zM474 320c0-31.981-26.019-58-58-58-3.578 0-7.076 0.343-10.477 0.966 6.762 17.718 10.477 36.941 10.477 57.034v32h58v-32z" />
<glyph unicode="&#xe621;" d="M464 416h-416c-26.512 0-48-21.488-48-48v-288c0-26.496 21.488-48 48-48h416c26.512 0 48 21.504 48 48v288c0 26.512-21.488 48-48 48zM43.856 64.16l-11.696 11.712 131.984 131.968 11.696-11.712-131.984-131.968zM468.144 64.16l-131.984 131.968 11.696 11.712 131.984-131.968-11.696-11.712zM272 170.8v-10.8h-32v10.8l-207.952 192.8 20.352 20.352 203.6-188.768 203.6 188.768 20.352-20.352-207.952-192.8z" />
<glyph unicode="&#xe622;" d="M400 416h-288c-26.51 0-48-21.49-48-48v-16h384v16c0 26.51-21.49 48-48 48zM316.16 448l7.058-50.5h-134.436l7.057 50.5h120.321zM320 480h-128c-13.2 0-25.495-10.696-27.321-23.769l-9.357-66.962c-1.827-13.073 7.478-23.769 20.678-23.769h160c13.2 0 22.505 10.696 20.679 23.769l-9.357 66.962c-1.827 13.073-14.122 23.769-27.322 23.769v0zM408 320h-304c-17.6 0-30.696-14.341-29.103-31.869l26.206-288.263c1.593-17.527 17.297-31.868 34.897-31.868h240c17.6 0 33.304 14.341 34.897 31.868l26.205 288.263c1.594 17.528-11.502 31.869-29.102 31.869zM192 32h-48l-16 224h64v-224zM288 32h-64v224h64v-224zM368 32h-48v224h64l-16-224z" />
<glyph unicode="&#xe623;" d="M512 192l-64 128h-96v64c0 17.6-14.4 32-32 32h-288c-17.6 0-32-14.4-32-32v-256l32-32h40.583c-5.449-9.416-8.583-20.339-8.583-32 0-35.346 28.654-64 64-64s64 28.654 64 64c0 11.661-3.134 22.584-8.583 32h177.167c-5.449-9.416-8.584-20.339-8.584-32 0-35.346 28.654-64 64-64s64 28.654 64 64c0 11.661-3.135 22.584-8.584 32h40.584v96zM352 192v80h66.334l40-80h-106.334z" />
<glyph unicode="&#xe626;" d="M416 393.847c38.233 0 72.546 20.811 96 36.553v-297.845c-23.454-15.743-57.767-36.555-96-36.555s-72.546 11.335-96 27.078c-23.454 15.74-57.767 27.075-96 27.075s-72.545-19.458-96-35.198v297.845c23.455 15.742 57.767 35.2 96 35.2s72.546-11.334 96-27.076c23.454-15.742 57.767-27.077 96-27.077zM64 480c17.673 0 32-14.327 32-32v-480h-64v480c0 17.673 14.327 32 32 32z" />
<glyph unicode="&#xe627;" d="M96 480v-512l160 160 160-160v512z" />
<glyph unicode="&#xe628;" d="M128 416v-448l160 160 160-160v448zM384 480h-320v-448l32 32v384h288z" />
<glyph unicode="&#xe62b;" d="M464 192c36.5 0 16-96-16-96 16 0 0-80-32-80 0-32-32-48-64-48-135.176 0-87.632 33.825-224 48v256c120.461 36.134 240 126.712 240 208 26.5 0 96-32 0-192 0 0 80 0 96 0 48 0 32-96 0-96zM96 272v-256h32v-16h-64c-17.6 0-32 21.6-32 48v192c0 26.4 14.4 48 32 48h64v-16h-32z" />
<glyph unicode="&#xe62c;" d="M48 256c-36.5 0-16 96 16 96-16 0 0 80 32 80 0 32 32 48 64 48 135.176 0 87.632-33.825 224-48v-256c-120.461-36.134-240-126.712-240-208-26.5 0-96 32 0 192 0 0-80 0-96 0-48 0-32 96 0 96zM416 176v256h-32v16h64c17.6 0 32-21.6 32-48v-192c0-26.4-14.4-48-32-48h-64v16h32z" />
<glyph unicode="&#xe637;" d="M426.655 480h-341.31c-46.94 0-85.345-38.392-85.345-85.329v-341.328c0-46.938 38.405-85.343 85.345-85.343h341.311c46.969 0 85.344 38.405 85.344 85.343v341.328c0 46.937-38.375 85.329-85.345 85.329zM128 352h256c4.569 0 9.002-0.981 13.072-2.831l-141.072-164.584-141.072 164.585c4.070 1.848 8.503 2.83 13.072 2.83zM96 128v192c0 0.67 0.028 1.336 0.070 2l93.832-109.47-92.799-92.8c-0.722 2.669-1.103 5.443-1.103 8.27zM384 96h-256c-2.827 0-5.601 0.381-8.27 1.103l91.059 91.059 45.211-52.748 45.212 52.747 91.058-91.059c-2.67-0.721-5.443-1.102-8.27-1.102zM416 128c0-2.827-0.381-5.6-1.103-8.27l-92.799 92.799 93.832 109.471c0.042-0.664 0.070-1.33 0.070-2v-192z" />
<glyph unicode="&#xe638;" d="M256 480c-141.385 0-256-114.615-256-256s114.615-256 256-256 256 114.615 256 256-114.615 256-256 256zM128 352h256c4.569 0 9.002-0.981 13.072-2.831l-141.072-164.584-141.072 164.585c4.070 1.848 8.503 2.83 13.072 2.83zM96 128v192c0 0.67 0.028 1.336 0.070 2l93.832-109.471-92.799-92.799c-0.722 2.668-1.103 5.443-1.103 8.27zM384 96h-256c-2.827 0-5.601 0.381-8.27 1.104l91.059 91.059 45.211-52.749 45.212 52.747 91.058-91.060c-2.67-0.72-5.443-1.101-8.27-1.101zM416 128c0-2.827-0.381-5.6-1.103-8.27l-92.8 92.799 93.833 109.471c0.042-0.664 0.070-1.33 0.070-2v-192z" />
<glyph unicode="&#xe639;" d="M394.767 448c0 0-100.478 0-133.97 0-60.061 0-116.585-45.503-116.585-98.211 0-53.863 40.941-97.333 102.044-97.333 4.249 0 8.378 0.085 12.42 0.376-3.964-7.593-6.8-16.144-6.8-25.021 0-14.969 8.052-27.105 18.234-37.012-7.693 0-15.121-0.224-23.226-0.224-74.391 0.001-131.65-47.38-131.65-96.511 0-48.389 62.771-78.656 137.167-78.656 84.812 0 131.653 48.122 131.653 96.514 0 38.801-11.448 62.036-46.843 87.067-12.108 8.571-35.266 29.418-35.266 41.672 0 14.36 4.098 21.434 25.714 38.323 22.156 17.312 37.837 41.651 37.837 69.958 0 33.703-15.011 66.549-43.187 77.386h42.478l29.98 21.672zM347.974 120.271c1.063-4.486 1.642-9.104 1.642-13.814 0-39.1-25.195-69.655-97.487-69.655-51.421 0-88.558 32.552-88.558 71.65 0 38.321 46.063 70.222 97.482 69.666 12-0.127 23.184-2.058 33.334-5.345 27.914-19.414 47.938-30.38 53.587-52.502zM265.643 266.112c-34.519 1.032-67.318 38.613-73.276 83.93-5.958 45.333 17.185 80.021 51.694 78.995 34.504-1.037 67.318-37.407 73.279-82.729 5.953-45.33-17.195-81.229-51.697-80.196z" />
<glyph unicode="&#xe63a;" d="M279.533 448c0 0-100.478 0-133.97 0-60.060 0-116.585-45.503-116.585-98.211 0-53.863 40.941-97.333 102.044-97.333 4.249 0 8.378 0.085 12.421 0.376-3.965-7.593-6.801-16.144-6.801-25.021 0-14.969 8.052-27.105 18.234-37.012-7.693 0-15.121-0.224-23.226-0.224-74.391 0.001-131.65-47.379-131.65-96.51 0-48.389 62.771-78.657 137.167-78.657 84.812 0 131.653 48.122 131.653 96.514 0 38.8-11.448 62.036-46.843 87.067-12.108 8.572-35.265 29.418-35.265 41.672 0 14.36 4.098 21.434 25.714 38.323 22.156 17.312 37.836 41.651 37.836 69.958 0 33.703-15.010 66.549-43.186 77.386h42.477l29.98 21.672zM232.74 120.271c1.063-4.486 1.642-9.103 1.642-13.814 0-39.1-25.196-69.655-97.487-69.655-51.421 0-88.558 32.552-88.558 71.65 0 38.321 46.063 70.222 97.482 69.666 12-0.127 23.184-2.058 33.335-5.345 27.913-19.413 47.938-30.381 53.586-52.502zM150.409 266.112c-34.519 1.032-67.318 38.613-73.276 83.93-5.958 45.333 17.185 80.021 51.694 78.995 34.505-1.037 67.319-37.407 73.279-82.729 5.953-45.33-17.195-81.229-51.697-80.196zM416 352v96h-32v-96h-96v-32h96v-96h32v96h96v32z" />
<glyph unicode="&#xe63b;" d="M0.403 45.168c-0.122 1.266-0.226 2.535-0.292 3.815 0.065-1.28 0.17-2.549 0.292-3.815zM117.954 197.426c46.005-1.369 76.867 46.349 68.931 106.599-7.947 60.24-51.698 108.584-97.704 109.961-46.013 1.365-76.87-44.741-68.926-105 7.941-60.234 51.676-110.187 97.699-111.56zM512 352v42.655c0 46.94-38.391 85.345-85.329 85.345h-341.328c-46.138 0-84.006-37.116-85.282-82.963 29.181 25.693 69.662 47.158 111.437 47.158 44.652 0 178.622 0 178.622 0l-39.974-33.809h-56.634c37.565-14.402 57.578-58.062 57.578-102.861 0-37.624-20.905-69.977-50.444-92.984-28.822-22.451-34.286-31.854-34.286-50.939 0-16.289 30.873-44 47.016-55.394 47.191-33.269 62.458-64.156 62.458-115.728 0-8.214-1.021-16.415-3.033-24.48h153.871c46.937 0 85.328 38.375 85.328 85.345v266.654h-96v-95.999h-32v96h-95.999v32h95.999v96h32v-96h96zM92.943 97.032c10.807 0 20.711 0.295 30.968 0.295-13.573 13.167-24.313 29.3-24.313 49.19 0 11.804 3.782 23.168 9.067 33.26-5.391-0.385-10.895-0.497-16.563-0.497-37.178 0-68.753 12.038-92.102 31.927v-33.621l0.003-100.865c26.72 12.687 58.444 20.311 92.94 20.311zM1.71 36.371c-0.556 2.729-0.983 5.503-1.271 8.317 0.287-2.814 0.715-5.588 1.271-8.317zM227.725 3.577c-7.529 29.403-34.227 43.982-71.444 69.784-13.536 4.366-28.447 6.937-44.447 7.104-44.809 0.482-86.554-17.471-110.108-44.186 7.96-38.853 42.517-68.279 83.617-68.279h143.222c0.908 5.564 1.348 11.316 1.348 17.216 0 6.267-0.767 12.396-2.188 18.361z" />
<glyph unicode="&#xe63c;" d="M218.503 70.919c0-37.534-23.195-67.196-88.879-69.588-38.492 21.893-70.745 53.476-93.454 91.433 11.845 29.248 48.846 51.523 91.158 51.057 12.011-0.126 23.205-2.057 33.372-5.35 27.954-19.433 50.5-31.576 56.162-53.724 1.057-4.482 1.641-9.103 1.641-13.828zM256 480c-73.97 0-140.598-31.385-187.333-81.549 18.467 10.226 40.269 16.319 63.451 16.319 33.534 0 128.219 0 128.219 0l-28.652-30.070h-33.655c23.748-13.606 36.376-41.624 36.376-72.506 0-28.346-15.708-51.19-37.89-68.529-21.64-16.901-25.746-23.983-25.746-38.367 0-12.271 25.861-30.549 37.75-39.468 41.409-31.056 49.789-50.592 49.789-89.435 0-39.363-34.468-78.552-92.933-91.871 28.174-10.669 58.713-16.524 90.624-16.524 141.385 0 256 114.615 256 256s-114.615 256-256 256zM384 288v-64h-32v64h-64v32h64v64h32v-64h64v-32h-64zM182.884 310.264c5.961-45.388-13.923-74.595-48.467-73.567-34.563 1.041-67.403 32.746-73.37 78.121-5.964 45.394 17.209 80.127 51.765 79.098 34.545-1.037 64.11-38.271 70.072-83.652zM110.443 158.966c-37.34 0-69.064-12.884-91.421-31.932-12.251 29.91-19.022 62.645-19.022 96.966 0 28.383 4.628 55.684 13.156 81.198 3.687-49.721 38.676-88.096 96.485-88.096 4.257 0 8.382 0.221 12.437 0.511-3.975-7.615-6.811-16.095-6.811-24.991 0-14.985 8.244-23.535 18.434-33.447-7.701 0-15.135-0.209-23.258-0.209z" />
<glyph unicode="&#xe63d;" d="M287.935-32h-95.935v256h-64v88.225l64 0.029-0.104 51.976c0 71.976 19.517 115.77 104.299 115.77h70.588v-88.242h-44.115c-33.016 0-34.603-12.328-34.603-35.342l-0.131-44.162h79.345l-9.352-88.225-69.927-0.029-0.065-256z" />
<glyph unicode="&#xe63e;" d="M426.672 480h-341.33c-46.936 0-85.342-38.407-85.342-85.344v-341.313c0-46.969 38.406-85.343 85.342-85.343l341.33 0.001c46.938 0 85.328 38.373 85.328 85.344v341.311c0 46.937-38.391 85.344-85.328 85.344zM435.296 224h-83.296v-224h-96v224h-46.263v73.282h46.263v47.593c0 64.671 27.896 103.125 103.935 103.125h87.622v-79.285h-71.565c-21.241 0.035-23.876-11.076-23.876-31.756l-0.116-39.677h96l-12.704-73.282z" />
<glyph unicode="&#xe63f;" d="M256 480c141.385 0 256-114.615 256-256 0-130.547-97.719-238.265-224-254.013v190.013h88l8 64h-96v32c0 17.673 14.327 32 32 32h64v64h-64c-53.020 0-96-42.98-96-96v-32h-48v-64h48v-190.013c-126.281 15.748-224 123.466-224 254.013 0 141.385 114.615 256 256 256z" />
<glyph unicode="&#xe640;" d="M512 382.791c-18.838-8.354-39.082-14.001-60.33-16.54 21.686 13 38.343 33.585 46.186 58.115-20.298-12.039-42.778-20.78-66.705-25.49-19.16 20.415-46.461 33.17-76.673 33.17-58.011 0-105.044-47.029-105.044-105.039 0-8.233 0.929-16.25 2.72-23.939-87.3 4.382-164.701 46.2-216.509 109.753-9.042-15.514-14.223-33.558-14.223-52.809 0-36.444 18.544-68.596 46.73-87.433-17.219 0.546-33.416 5.271-47.577 13.139-0.010-0.438-0.010-0.878-0.010-1.321 0-50.894 36.209-93.348 84.261-103-8.813-2.4-18.094-3.686-27.674-3.686-6.769 0-13.349 0.66-19.764 1.886 13.368-41.73 52.16-72.103 98.126-72.948-35.95-28.175-81.243-44.967-130.458-44.967-8.479 0-16.84 0.497-25.058 1.47 46.486-29.805 101.701-47.197 161.021-47.197 193.211 0 298.868 160.062 298.868 298.872 0 4.554-0.103 9.084-0.305 13.59 20.528 14.81 38.336 33.31 52.418 54.374z" />
<glyph unicode="&#xe641;" d="M426.671 480h-341.328c-46.937 0-85.343-38.405-85.343-85.345v-341.311c0-46.969 38.406-85.344 85.343-85.344h341.328c46.938 0 85.329 38.375 85.329 85.345v341.31c0 46.94-38.391 85.345-85.329 85.345zM419.026 309.083c0.164-3.671 0.245-7.364 0.245-11.074 0-113.107-84.608-243.534-239.329-243.534-47.502 0-91.717 14.174-128.943 38.459 6.58-0.794 13.276-1.197 20.065-1.197 39.411 0 75.679 13.685 104.467 36.641-36.808 0.69-67.872 25.438-78.577 59.441 5.137-1 10.406-1.537 15.826-1.537 7.672 0 15.103 1.048 22.16 3.004-38.48 7.866-67.475 42.458-67.475 83.928 0 0.361 0 0.719 0.008 1.076 11.34-6.41 24.312-10.26 38.1-10.705-22.571 15.349-37.421 41.546-37.421 71.244 0 15.685 4.147 30.389 11.389 43.029 41.487-51.785 103.468-85.86 173.377-89.431-1.435 6.266-2.179 12.798-2.179 19.507 0 47.269 37.663 85.59 84.115 85.59 24.195 0 46.059-10.393 61.401-27.029 19.16 3.838 37.162 10.96 53.416 20.771-6.281-19.988-19.617-36.761-36.983-47.355 17.013 2.069 33.226 6.67 48.31 13.477-11.273-17.162-25.535-32.238-41.972-44.305z" />
<glyph unicode="&#xe642;" d="M256 480c-141.385 0-256-114.615-256-256s114.615-256 256-256 256 114.615 256 256-114.615 256-256 256zM403.121 299.456c0.146-3.254 0.221-6.528 0.221-9.819 0-100.311-76.354-215.982-215.979-215.982-42.868 0-82.768 12.568-116.363 34.107 5.938-0.704 11.981-1.063 18.108-1.063 35.565 0 68.295 12.138 94.275 32.497-33.217 0.61-61.25 22.561-70.912 52.716 4.637-0.884 9.392-1.361 14.283-1.361 6.923 0 13.629 0.928 19.999 2.662-34.726 6.976-60.893 37.656-60.893 74.434 0 0.32 0 0.639 0.008 0.955 10.235-5.685 21.939-9.1 34.382-9.494-20.37 13.611-33.77 36.846-33.77 63.184 0 13.911 3.744 26.952 10.278 38.162 37.439-45.927 93.374-76.146 156.462-79.314-1.294 5.559-1.965 11.351-1.965 17.302 0 41.92 33.99 75.906 75.909 75.906 21.833 0 41.562-9.218 55.409-23.97 17.29 3.404 33.537 9.721 48.206 18.42-5.668-17.727-17.705-32.603-33.376-41.997 15.355 1.834 29.984 5.916 43.597 11.952-10.175-15.224-23.045-28.593-37.879-39.297z" />
<glyph unicode="&#xe643;" d="M68.147 104.535c-37.598 0-68.146-30.667-68.146-68.038 0-37.577 30.55-67.901 68.146-67.901 37.733 0 68.247 30.324 68.247 67.901-0.001 37.371-30.512 68.038-68.247 68.038zM0.078 306.035v-98.129c63.892 0 123.979-24.986 169.229-70.256 45.192-45.159 70.141-105.518 70.141-169.65h98.561c-0.001 186.41-151.641 338.035-337.931 338.035zM0.194 480v-98.178c227.891 0 413.378-185.667 413.378-413.822h98.428c0 282.235-229.627 512-511.806 512z" />
<glyph unicode="&#xe644;" d="M426.67 480h-341.327c-46.938 0-85.343-38.406-85.343-85.344v-341.314c0-46.967 38.406-85.342 85.344-85.342h341.326c46.938 0 85.33 38.374 85.33 85.342v341.314c0 46.938-38.392 85.344-85.33 85.344zM139.472 64.376c-23.985 0-43.472 19.346-43.472 43.314 0 23.842 19.486 43.406 43.472 43.406 24.079 0 43.53-19.564 43.53-43.406-0.001-23.968-19.452-43.314-43.53-43.314zM248.734 64.002c0 40.905-15.904 79.409-44.73 108.222-28.857 28.875-67.188 44.813-107.952 44.813v62.593c118.826 0 215.563-96.721 215.563-215.627l-62.881-0.001zM359.814 64.002c0 145.531-118.329 263.97-263.688 263.97v62.624c180.001 0 326.473-146.562 326.473-326.596l-62.785 0.002z" />
<glyph unicode="&#xe645;" d="M256 480c-141.385 0-256-114.615-256-256s114.615-256 256-256 256 114.615 256 256-114.615 256-256 256zM160 96c-17.673 0-32 14.327-32 32s14.327 32 32 32 32-14.327 32-32-14.327-32-32-32zM248 96c0 66.168-53.832 120-120 120v48c92.636 0 168-75.364 168-168h-48zM344 96c0 57.695-22.468 111.938-63.265 152.735s-95.039 63.265-152.735 63.265v48c70.517 0 136.813-27.461 186.677-77.324 49.862-49.863 77.323-116.159 77.323-186.676h-48z" />
<glyph unicode="&#xe646;" d="M416 416h-320c-52.8 0-96-43.2-96-96v-192c0-52.8 43.2-96 96-96h320c52.8 0 96 43.2 96 96v192c0 52.8-43.2 96-96 96zM192 96v256l160-128-160-128z" />
<glyph unicode="&#xe647;" d="M416 416h-320c-52.8 0-96-43.2-96-96v-192c0-52.8 43.2-96 96-96h320c52.8 0 96 43.2 96 96v192c0 52.8-43.2 96-96 96zM480 128c0-16.989-6.687-33.031-18.827-45.173-12.142-12.14-28.183-18.827-45.173-18.827h-320c-16.989 0-33.031 6.687-45.172 18.827-12.141 12.142-18.828 28.184-18.828 45.173v192c0 16.989 6.687 33.031 18.828 45.172s28.183 18.828 45.172 18.828h320c16.989 0 33.031-6.687 45.173-18.828s18.827-28.183 18.827-45.172v-192zM192 96l160 128-160 128z" />
<glyph unicode="&#xe648;" d="M478.898 288h-28.703c-17.583 0-32.994 14.871-34.195 32v0c0.002 91.334-73.629 160-165.595 160h-83.912c-91.906 0-166.428-74-166.493-165.333v-181.399c0-91.327 74.587-165.268 166.492-165.268h179.21c91.974 0 166.298 73.941 166.298 165.268v117.191c0 18.251-14.72 37.541-33.102 37.541zM160 352h96c17.6 0 32-14.4 32-32s-14.4-32-32-32h-96c-17.6 0-32 14.4-32 32s14.4 32 32 32zM352 96h-192c-17.6 0-32 14.4-32 32s14.4 32 32 32h192c17.6 0 32-14.4 32-32s-14.4-32-32-32z" />
<glyph unicode="&#xe649;" d="M426.674 480h-341.349c-47.123 0-85.325-38.209-85.325-85.341v-341.318c0-47.133 38.202-85.341 85.325-85.341h341.348c47.125 0 85.324 38.208 85.324 85.341l0.003 341.318c0 47.132-38.202 85.341-85.326 85.341zM448 155.951c0-68.495-55.743-123.951-124.722-123.951h-134.409c-68.928 0-124.869 55.456-124.869 123.951v136.049c0.048 68.5 55.94 124 124.869 124h62.934c68.976 0 124.199-51.5 124.197-120 0.901-12.847 12.461-24 25.646-24h21.526c13.787 0 24.828-14.467 24.828-28.156v-87.893zM352 160c0-17.6-14.4-32-32-32h-128c-17.6 0-32 14.4-32 32v0c0 17.6 14.4 32 32 32h128c17.6 0 32-14.4 32-32v0zM288 288c0-17.6-14.4-32-32-32h-64c-17.6 0-32 14.4-32 32v0c0 17.6 14.4 32 32 32h64c17.6 0 32-14.4 32-32v0z" />
<glyph unicode="&#xe64a;" d="M288.016 256l-0.001-117.092c0-29.709-0.385-46.828 2.765-55.25 3.125-8.377 10.959-17.073 19.495-22.101 11.342-6.794 24.271-10.188 38.854-10.188 25.927 0 41.239 3.424 66.871 20.27v-76.972c-21.85-10.276-40.933-16.297-58.662-20.461-17.75-4.121-36.93-6.203-57.532-6.203-23.414 0-37.228 2.943-55.205 8.828-17.979 5.934-33.33 14.403-46.010 25.27-12.725 10.961-21.511 22.604-26.424 34.916-4.913 12.318-7.358 30.207-7.358 53.622v179.55h-68.713v72.503c20.104 6.521 42.582 15.894 56.89 28.076 14.377 12.225 25.883 26.853 34.553 43.972 8.696 17.073 14.674 38.856 17.936 65.258h82.542l-0.001-127.998h127.984v-96h-127.984z" />
<glyph unicode="&#xe64b;" d="M426.69 480h-341.346c-46.939 0-85.343-38.407-85.343-85.343v-341.313c0-46.969 38.404-85.344 85.343-85.344h341.346c46.935 0 85.31 38.375 85.31 85.344v341.314c-0.004 46.935-38.379 85.342-85.31 85.342zM365.858 67.656c-15.076-7.094-28.764-12.094-41-14.969-12.248-2.845-25.48-4.279-39.701-4.279-16.156 0-25.688 2.029-38.094 6.094-12.404 4.094-23 9.936-31.75 17.436-8.779 7.564-14.843 15.599-18.233 24.097-3.392 8.502-5.078 20.846-5.078 37.002v123.901h-47.998v50.033c13.872 4.5 29.968 10.967 39.842 19.375 9.92 8.436 17.859 18.529 23.842 30.342 6.002 11.783 10.125 26.813 12.376 45.033h50.25v-81.721h81.686v-63.063h-81.689v-90.594c0-20.5-0.264-32.313 1.908-38.125 2.156-5.78 7.563-11.78 13.451-15.25 7.828-4.688 16.752-7.030 26.813-7.030 17.893 0 35.689 5.813 53.375 17.438v-55.72z" />
<glyph unicode="&#xe64c;" d="M256 480c-141.385 0-256-114.615-256-256s114.613-256 256-256c141.385 0 256 114.615 256 256s-114.615 256-256 256zM280.822 137.941c-23.26 1.807-33.021 13.328-51.252 24.404-10.030-52.588-22.282-103.008-58.57-129.343-11.202 79.484 16.447 139.182 29.285 202.557-21.892 36.853 2.635 111.017 48.81 92.737 56.813-22.474-49.2-137.004 21.966-151.308 74.31-14.934 104.644 128.929 58.571 175.712-66.579 67.553-193.799 1.54-178.155-95.178 3.807-23.646 28.236-30.819 9.762-63.451-42.61 9.446-55.325 43.051-53.688 87.856 2.634 73.337 65.892 124.682 129.343 131.783 80.242 8.982 155.553-29.454 165.953-104.938 11.706-85.195-36.224-177.465-122.025-170.831z" />
<glyph unicode="&#xe64d;" d="M426.675 480h-341.351c-47.125 0-85.324-38.21-85.324-85.343v-341.315c0-47.133 38.199-85.342 85.324-85.342h341.351c47.125 0 85.325 38.209 85.325 85.342v341.315c0 47.133-38.2 85.343-85.325 85.343zM280.822 137.941c-23.26 1.807-33.021 13.328-51.252 24.404-10.030-52.589-22.281-103.009-58.569-129.344-11.202 79.484 16.447 139.182 29.285 202.557-21.893 36.853 2.635 111.017 48.81 92.737 56.813-22.474-49.2-137.004 21.966-151.308 74.31-14.934 104.644 128.929 58.571 175.712-66.579 67.553-193.799 1.54-178.155-95.178 3.807-23.646 28.236-30.819 9.762-63.451-42.61 9.446-55.325 43.051-53.688 87.856 2.634 73.337 65.892 124.682 129.343 131.783 80.242 8.982 155.553-29.454 165.953-104.938 11.705-85.194-36.225-177.464-122.026-170.83z" />
<glyph unicode="&#xe64e;" d="M287.462 198.938c-40.525-40.55-87.475-79.309-106.035-60.723-26.573 26.547-42.931 49.69-101.504 2.637s-13.594-78.438 12.16-104.192c29.696-29.671 140.391-1.562 249.831 107.853 109.389 109.415 137.549 220.135 107.827 249.831-25.728 25.753-57.088 70.707-104.166 12.16s-23.936-74.931 2.637-101.504c18.509-18.586-20.224-65.511-60.749-106.061z" />
<glyph unicode="&#xe651;" d="M379.392 116.531c-63.104 22.989-83.277 42.394-83.277 83.942 0 24.935 19.277 16.793 27.725 62.464 3.507 18.944 20.531 0.307 23.808 43.545 0 17.229-9.293 21.529-9.293 21.529s4.736 25.523 6.579 45.133c2.253 24.474-14.131 87.654-101.734 87.654-87.578 0-104.013-63.181-101.709-87.654 1.843-19.61 6.579-45.133 6.579-45.133s-9.319-4.275-9.319-21.529c3.251-43.238 20.275-24.601 23.782-43.545 8.474-45.671 27.75-37.53 27.75-62.464 0-41.549-20.173-60.954-83.277-83.942-63.334-23.040-104.448-46.567-104.448-62.618 0-16.026 0-53.888 0-53.888h481.28c0 0 0 37.863 0 53.888s-41.139 39.552-104.448 62.618z" />
<glyph unicode="&#xe652;" d="M512 5.12c0 0-0.998 96.947-6.938 106.983-8.832 14.976-29.337 25.241-67.43 41.165-37.965 15.872-50.125 29.286-50.125 57.933 0 17.229 11.597 11.597 16.691 43.111 2.099 13.081 12.339 0.231 14.31 30.054 0 11.904-5.581 14.873-5.581 14.873s2.816 17.613 3.942 31.155c1.382 16.896-8.525 60.493-61.235 60.493s-62.567-43.623-61.209-60.493c1.101-13.542 3.917-31.155 3.917-31.155s-5.581-2.969-5.581-14.873c1.971-29.85 12.211-16.998 14.336-30.054 5.069-31.514 16.666-25.882 16.666-43.111 0-19.481-5.632-31.923-21.171-42.855 82.944-41.523 94.080-49.997 94.080-87.117v-76.109h115.328zM261.735 138.88c-50.662 21.145-66.816 39.014-66.816 77.235 0 22.938 15.463 15.463 22.246 57.498 2.791 17.433 16.487 0.281 19.072 40.064 0 15.872-7.45 19.815-7.45 19.815s3.789 23.475 5.274 41.549c1.843 22.477-11.367 80.64-81.638 80.64s-83.456-58.138-81.613-80.64c1.485-18.074 5.248-41.549 5.248-41.549s-7.424-3.942-7.424-19.815c2.637-39.808 16.282-22.656 19.097-40.064 6.784-42.035 22.246-34.535 22.246-57.498 0-38.221-16.205-56.089-66.816-77.235-15.437-6.451-43.161-16.461-43.161-40.474v-93.286h355.687c0 0 0 55.168 0 69.913 0 21.939-43.187 42.599-93.952 63.846z" />
<glyph unicode="&#xe655;" d="M256 455.68l61.133-172.083h164.147l-133.939-101.069 47.872-177.408-139.213 106.342-139.213-106.342 47.872 177.408-133.939 101.069h164.147z" />
<glyph unicode="&#xe656;" d="M480.512 222.72l-205.415 205.594c-10.496 10.906-27.673 10.906-38.169 0l-205.44-205.594c-10.521-10.88-6.605-19.815 8.704-19.815h42.829v-157.901c0-11.392 0.487-20.711 21.094-20.711h99.712v158.413h104.32v-158.413h104.678c15.719 0 16.154 9.293 16.154 20.711v157.901h42.803c15.283 0 19.226 8.909 8.729 19.815z" />
<glyph unicode="&#xe657;" d="M449.152 90.419l-96.743 96.743c14.592 23.987 22.989 52.096 22.989 82.227 0 87.45-75.801 163.251-163.277 163.251-87.45 0-158.362-70.912-158.362-158.361 0-87.475 75.776-163.277 163.251-163.277 29.082 0 56.32 7.885 79.744 21.581l97.255-97.28c9.549-9.523 24.96-9.523 34.457 0l24.141 24.115c9.498 9.523 6.041 21.504-3.456 31.002zM102.502 274.279c0 60.544 49.075 109.645 109.619 109.645 60.569 0 114.535-53.965 114.535-114.534s-49.075-109.645-109.645-109.645-114.509 53.965-114.509 114.535z" />
<glyph unicode="&#xe65a;" d="M212.352 51.2c-11.136 0-21.683 5.197-28.441 14.157l-91.495 120.781c-11.904 15.719-8.806 38.093 6.912 49.997 15.744 11.929 38.093 8.806 49.997-6.912l60.185-79.463 151.347 242.97c10.419 16.717 32.435 21.837 49.178 11.418 16.717-10.394 21.837-32.435 11.392-49.152l-178.765-286.976c-6.221-10.010-16.947-16.281-28.697-16.793-0.537-0.026-1.075-0.026-1.613-0.026z" />
<glyph unicode="&#xe65b;" d="M367.334 149.709l-70.605 80.691 70.605 80.691c12.007 12.007 12.007 31.463 0 43.443s-31.462 11.981-43.443 0l-67.891-77.593-67.865 77.568c-12.006 12.006-31.463 12.006-43.443 0s-11.981-31.463 0-43.443l70.579-80.666-70.605-80.691c-11.981-12.007-11.981-31.411 0-43.392 12.006-12.007 31.463-12.007 43.443 0l67.891 77.543 67.865-77.543c12.007-12.007 31.462-12.007 43.443 0s12.007 31.385 0.026 43.392z" />
<glyph unicode="&#xe65e;" d="M409.6 435.2h-307.2c-28.16 0-51.2-23.040-51.2-51.2v-307.2c0-28.16 23.040-51.2 51.2-51.2h307.2c28.16 0 51.2 23.040 51.2 51.2v307.2c0 28.16-23.040 51.2-51.2 51.2zM334.361 107.801l-78.362 78.336-78.362-78.362-44.237 44.262 78.336 78.362-78.336 78.336 44.237 44.263 78.362-78.336 78.336 78.336 44.262-44.237-78.336-78.362 78.361-78.362-44.262-44.237z" />
<glyph unicode="&#xe661;" d="M256 445.44c-118.784 0-215.040-96.307-215.040-215.040 0-118.784 96.281-215.040 215.040-215.040s215.040 96.281 215.040 215.040c0 118.758-96.281 215.040-215.040 215.040zM300.262 230.4l78.362-78.362-44.262-44.262-78.362 78.362-78.362-78.361-44.237 44.262 78.336 78.362-78.336 78.336 44.237 44.262 78.362-78.336 78.361 78.336 44.262-44.237-78.362-78.362z" />
<glyph unicode="&#xe662;" d="M389.094 256h-266.214c-14.157 0-15.36-11.469-15.36-25.6s1.203-25.6 15.36-25.6h266.214c14.157 0 15.385 11.469 15.385 25.6s-1.229 25.6-15.385 25.6z" />
<glyph unicode="&#xe663;" d="M389.094 256h-107.52v107.52c0 14.131-11.443 15.36-25.6 15.36-14.131 0-25.6-1.203-25.6-15.36v-107.52h-107.495c-14.157 0-15.36-11.469-15.36-25.6s1.203-25.6 15.36-25.6h107.495v-107.52c0-14.131 11.469-15.36 25.6-15.36 14.157 0 25.6 1.229 25.6 15.36v107.52h107.52c14.157 0 15.385 11.469 15.385 25.6s-1.229 25.6-15.385 25.6z" />
<glyph unicode="&#xe664;" d="M460.8 409.6h-244.583c-11.264 0-27.417-6.067-35.891-13.491l-173.977-152.218c-8.473-7.424-8.473-19.559 0-26.983l173.977-152.243c8.474-7.399 24.627-13.466 35.891-13.466h244.583c28.185 0 51.2 23.040 51.2 51.2v256c0 28.16-23.014 51.2-51.2 51.2zM388.889 128l-65.459 65.459-65.408-65.459-36.966 36.941 65.433 65.459-65.433 65.434 36.966 36.966 65.433-65.433 65.433 65.433 36.941-36.966-65.408-65.434 65.433-65.434-36.966-36.966z" />
<glyph unicode="&#xe667;" d="M252.851 465.894c-130.048-1.741-234.087-108.595-232.345-238.669 1.741-129.997 108.595-234.061 238.643-232.32s234.087 108.595 232.346 238.669c-1.715 130.022-108.595 234.061-238.643 232.32zM278.963 387.405c23.936 0 31.002-13.875 31.002-29.773 0-19.84-15.897-38.195-43.008-38.195-22.681 0-33.459 11.418-32.819 30.259 0 15.897 13.312 37.709 44.825 37.709zM217.575 83.2c-16.358 0-28.339 9.933-16.896 53.606l18.765 77.415c3.251 12.416 3.789 17.383 0 17.383-4.889 0-26.137-8.576-38.707-17.024l-8.166 13.389c39.808 33.229 85.581 52.736 105.19 52.736 16.358 0 19.072-19.354 10.906-49.127l-21.504-81.408c-3.789-14.387-2.151-19.353 1.639-19.353 4.889 0 20.992 5.939 36.813 18.381l9.241-12.416c-38.681-38.681-80.896-53.581-97.28-53.581z" />
<glyph unicode="&#xe668;" d="M360.704 429.209c-29.209 21.069-65.843 31.591-109.978 31.591-33.587 0-61.901-7.424-84.915-22.221-36.531-23.194-55.936-62.566-58.291-118.118h84.633c0 16.179 4.71 31.769 14.157 46.771s25.472 22.502 48.077 22.502c22.963 0 38.81-6.093 47.462-18.253 8.678-12.211 13.005-25.702 13.005-40.499 0-12.877-6.451-24.653-14.233-35.379-4.275-6.247-9.933-11.981-16.921-17.255 0 0-45.901-29.44-66.073-53.095-11.699-13.722-12.749-34.253-13.773-63.719-0.077-2.099 0.717-6.425 8.064-6.425s59.315 0 65.843 0 7.885 4.839 7.987 6.963c0.461 10.726 1.664 16.205 3.635 22.4 3.712 11.699 13.747 21.913 25.063 30.695l23.296 16.077c21.017 16.384 37.811 29.824 45.209 40.371 12.647 17.357 21.529 38.707 21.529 64.025 0 41.344-14.618 72.525-43.776 93.568zM249.369 104.345c-29.184 0.87-53.248-19.303-54.169-50.944-0.922-31.616 21.965-52.505 51.149-53.376 30.464-0.896 53.888 18.637 54.81 50.253 0.896 31.642-21.325 53.171-51.789 54.067z" />
<glyph unicode="&#xe66d;" d="M495.104 139.673l-81.51 54.835h-50.253l87.040-66.765h-90.752c-2.611 0-4.941-1.331-6.144-3.405l-20.889-57.216h-153.19l-20.915 57.216c-1.152 2.074-3.533 3.405-6.144 3.405h-90.727l87.066 66.765h-50.279l-81.485-54.835c-12.134-7.245-19.379-23.962-16.128-37.094l14.361-78.695c3.251-13.159 17.69-23.936 32.026-23.936h417.613c14.387 0 28.8 10.777 32.051 23.936l14.361 78.695c3.302 13.159-3.968 29.849-16.103 37.094zM389.146 304.077h-84.505v131.072h-97.28v-131.072h-84.48l133.12-124.928 133.146 124.928z" />
<glyph unicode="&#xe66e;" d="M255.616 424.96v-97.997l179.635 0.026v-193.331h-179.635v-97.817l-194.125 194.56z" />
<glyph unicode="&#xe66f;" d="M450.56 230.016l-97.997 0.026 0.026 179.609h-193.331v-179.635l-97.817 0.026 194.56-194.151z" />
<glyph unicode="&#xe670;" d="M450.56 230.784l-97.997-0.025 0.026-179.609h-193.331v179.635l-97.817-0.025 194.585 194.15z" />
<glyph unicode="&#xe671;" d="M256.384 424.96v-97.997l-179.635 0.026v-193.331h179.635v-97.817l194.125 194.56z" />
<glyph unicode="&#xe676;" d="M358.375 348.16l0.026-235.52-204.8 117.76z" />
<glyph unicode="&#xe677;" d="M373.76 332.774l-235.52 0.026 117.76-204.8z" />
<glyph unicode="&#xe678;" d="M138.24 128h235.52l-117.786 204.8z" />
<glyph unicode="&#xe679;" d="M153.625 348.16l-0.025-235.52 204.8 117.76z" />
<glyph unicode="&#xe67a;" d="M368.615 40.499c6.861-6.938 6.861-18.125 0-25.063s-17.945-6.938-24.807 0l-200.448 202.419c-6.861 6.938-6.861 18.151 0 25.063l200.448 202.445c6.861 6.938 17.945 6.938 24.807 0s6.861-18.125 0-25.063l-182.784-189.901 182.784-189.901z" />
<glyph unicode="&#xe67b;" d="M66.099 343.014c-6.938 6.861-18.151 6.861-25.063 0-6.912-6.835-6.912-17.946 0-24.807l202.445-200.448c6.938-6.861 18.125-6.861 25.063 0l202.445 200.448c6.912 6.861 6.938 17.945 0 24.806s-18.176 6.861-25.063 0.026l-189.927-182.81-189.901 182.784z" />
<glyph unicode="&#xe67c;" d="M445.901 117.785c6.938-6.861 18.151-6.861 25.063 0 6.938 6.861 6.938 17.945 0 24.807l-202.445 200.448c-6.912 6.861-18.125 6.861-25.037 0l-202.445-200.448c-6.912-6.861-6.938-17.945 0-24.807s18.125-6.861 25.063 0l189.901 182.81 189.901-182.81z" />
<glyph unicode="&#xe67d;" d="M143.352 40.499c-6.861-6.938-6.861-18.125 0-25.063s17.946-6.938 24.806 0l200.448 202.419c6.861 6.938 6.861 18.151 0 25.063l-200.448 202.445c-6.861 6.938-17.946 6.938-24.806 0s-6.861-18.125 0-25.063l182.784-189.901-182.784-189.901z" />
<glyph unicode="&#xe685;" d="M220.57 147.763c-13.44-70.477-29.85-138.061-78.49-173.363-15.001 106.547 22.041 186.547 39.245 271.488-29.338 49.408 3.533 148.787 65.433 124.288 76.16-30.131-65.945-183.629 29.44-202.803 99.61-20.019 140.262 172.8 78.515 235.495-89.241 90.573-259.789 2.099-238.797-127.513 5.094-31.693 37.837-41.319 13.082-85.043-57.114 12.647-74.163 57.703-71.962 117.76 3.533 98.278 88.32 167.091 173.363 176.614 107.571 12.058 208.512-39.475 222.413-140.647 15.693-114.176-48.512-237.85-163.558-228.941-31.155 2.381-44.237 17.817-68.685 32.666z" />
<glyph unicode="&#xe689;" d="M448 0h-384c-17.664 0-32 14.336-32 32v336c0 17.664 14.336 32 32 32h32v-16c0-26.512 21.488-48 48-48s48 21.488 48 48v16h128v-16c0-26.512 21.504-48 48-48s48 21.488 48 48v16h32c17.664 0 32-14.336 32-32v-336c0-17.664-14.336-32-32-32zM448 288h-384v-256h384v256zM209.104 162.736c3.152 5.024 4.736 10.336 4.736 15.888 0 12.368-6.656 18.56-19.968 18.56-11.568 0-22.624-4.592-33.184-13.776v26.064c11.68 7.568 24.88 11.344 39.568 11.344 13.744 0 24.48-3.456 32.208-10.352s11.584-16.24 11.584-27.984c0-15.68-9.408-31.904-28.224-48.656l-27.664-24.56v-0.56h54.56v-24.56h-88.496v23.056l38.528 36.848c7.744 7.424 13.2 13.648 16.352 18.688zM317.392 109.344c4.224 3.248 6.336 7.776 6.336 13.6 0 6-2.608 10.624-7.824 13.872s-12.384 4.88-21.52 4.88h-12.096v22.688h11.152c17.504 0 26.256 5.808 26.256 17.44 0 10.944-6.72 16.4-20.16 16.4-8.992 0-17.744-2.912-26.256-8.72v24.192c9.44 4.752 20.432 7.12 32.992 7.12 13.744 0 24.448-3.088 32.112-9.28s11.488-14.224 11.488-24.096c0-17.568-8.912-28.56-26.72-32.992v-0.464c9.504-1.184 16.992-4.64 22.496-10.352s8.256-12.736 8.256-21.040c0-12.56-4.592-22.496-13.776-29.808s-21.872-10.976-38.064-10.976c-13.872 0-25.152 2.256-33.84 6.752v25.776c8.992-6.56 19.504-9.84 31.504-9.84 7.552-0.032 13.44 1.6 17.664 4.848zM367.504 352c-17.408 0-31.504 14.096-31.504 31.504v32.992c0 17.408 14.096 31.504 31.504 31.504s31.504-14.096 31.504-31.504v-32.992c0-17.408-14.096-31.504-31.504-31.504zM143.504 352c-17.408 0-31.504 14.096-31.504 31.504v32.992c0 17.408 14.096 31.504 31.504 31.504s31.504-14.096 31.504-31.504v-32.992c0-17.408-14.112-31.504-31.504-31.504z" />
<glyph unicode="&#xe69a;" d="M0 256v48h60l120.496 120.512c-0.8 2.384-1.488 4.816-1.488 7.488 0 13.264 10.736 24 24 24 13.248 0 24-10.736 24-24 0-13.248-10.752-24-24-24-1.776 0-3.344 0.656-4.992 1.008l-105.024-105.008h309.664l-104.4 105.264c-2.064-0.576-4.032-1.264-6.256-1.264-13.248 0-24 10.752-24 24 0 13.264 10.752 24 24 24s24-10.736 24-24c0-2.448-0.72-4.688-1.408-6.928l121.072-121.072h60.336v-48h-496zM397.904 17.568c-4.688-18.752-17.68-17.712-17.68-17.712l-265.52-0.512c-13.536 0-17.168 17.152-17.168 17.152l-70.192 223.28 441.184 0.416-70.624-222.624zM159.984 208h-16v-80h16v80zM159.984 112h-16v-80h16v80zM191.984 208h-15.984v-80h15.984v80zM191.984 112h-15.984v-80h15.984v80zM223.984 208h-16v-80h16v80zM223.984 112h-16v-80h16v80zM256 208h-16v-80h16v80zM256 112h-16v-80h16v80zM288 208h-16v-80h16v80zM288 112h-16v-80h16v80zM320 208h-16v-80h16v80zM320 112h-16v-80h16v80zM352 208h-16v-80h16v80zM352 112h-16v-80h16v80z" />
<glyph unicode="&#xe69c;" d="M245.296 163.84c-0.416 0.288-48.544 81.2-48.704 82.24-9.952 21.744-17.984 43.984-1.248 53.856l-69.456 117.12c-18-13.456-68.912-86.48 26.384-251.968 100.384-174.4 195.92-167.152 215.072-155.344l-67.68 114.32c-16-9.408-29.472 6.096-54.368 39.776zM413.792 54.128l0.016 0.096c0 0-52.848 89.056-52.88 89.088-4.192 7.056-13.2 9.28-20.224 5.184l-32.384-19.152 67.872-114.656c0 0 32.384 19.056 32.368 19.12h0.064c7.44 4.416 9.152 13.536 5.168 20.32zM236.576 324.224v0.064c7.44 4.4 9.184 13.52 5.2 20.24l0.032 0.096c0 0-54.368 91.664-54.4 91.68-4.176 7.088-13.216 9.28-20.208 5.184l-32.384-19.152 69.376-117.184c0 0 32.368 19.024 32.384 19.072z" />
<glyph unicode="&#xe69d;" d="M416-32h-336c-17.68 0-32 14.336-32 32v384c0 17.68 14.32 32 32 32v-384c0-17.664 14.336-32 32-32h64c17.68 0 32 14.336 32 32v384h208c17.68 0 32-14.336 32-32v-384c0-17.664-14.32-32-32-32zM336 16h32v32h-32v-32zM336 64h32v32h-32v-32zM336 112h32v32h-32v-32zM336 160h32v32h-32v-32zM288 16h32v32h-32v-32zM288 64h32v32h-32v-32zM288 112h32v32h-32v-32zM288 160h32v32h-32v-32zM416 368c0 8.848-7.152 16-16 16h-144c-8.832 0-16-7.152-16-16v-64c0-8.832 7.168-16 16-16h144c8.848 0 16 7.168 16 16v64zM416 192h-32v-32h32v32zM416 144h-32v-32h32v32zM416 96h-32v-32h32v32zM416 48h-32v-32h32v32zM176 16h-64c-8.832 0-16 7.152-16 16v400c0 8.848 7.168 16 16 16h31.008v32h16.992v-32h16c8.832 0 16-7.152 16-16v-400c0-8.848-7.168-16-16-16z" />
<glyph unicode="&#xe69e;" d="M128 64c0-26.496 21.488-48 48-48h160c26.496 0 48 21.504 48 48l32 256h-320l32-256zM304 272h32v-208h-32v208zM240 272h32v-208h-32v208zM176 272h32v-208h-32v208zM408 384h-104c0 0-7.168 32-16 32h-64c-8.848 0-16-32-16-32h-104c-13.264 0-24-10.736-24-24s0-24 0-24h352c0 0 0 10.736 0 24s-10.752 24-24 24z" />
<glyph unicode="&#xe69f;" d="M256 416c-106.048 0-192-85.968-192-192s85.952-192 192-192c106.032 0 192 85.968 192 192s-85.968 192-192 192zM320 323.008c13.248 0 24-14.336 24-32s-10.752-32-24-32-24 14.336-24 32 10.752 32 24 32zM190.8 322.8c13.248 0 24-14.336 24-32s-10.752-32-24-32-24 14.336-24 32 10.752 32 24 32zM254 107.008c-65.68 0-109.712 42.992-117.632 114.496h15.504c12.56-55.328 46.56-83.008 102-83.008s89.44 27.664 102 83.008h16c-7.904-71.52-52.192-114.496-117.872-114.496z" />
<glyph unicode="&#xe6a0;" d="M256 416c-106.048 0-192-85.952-192-192 0-106.032 85.952-192 192-192 106.032 0 192 85.968 192 192 0 106.048-85.968 192-192 192zM319.008 324.992c13.248 0 24-14.336 24-32s-10.752-32-24-32-24 14.336-24 32 10.736 32 24 32zM191.008 324.992c13.248 0 24-14.336 24-32s-10.752-32-24-32-24 14.336-24 32 10.736 32 24 32zM254.88 155.856c-74 0-96.928-38.704-96.928-38.704s21.328 66.88 97.040 66.88c76.16 0 95.008-69.168 95.008-69.168s-21.12 40.992-95.12 40.992z" />
<glyph unicode="&#xe6a2;" d="M466.496 0.624l-11.344-11.344c-12.56-12.544-32.88-12.544-45.408 0l-90.816 90.784c-10.496 10.528-11.664 26.304-4.496 38.592l-49.664 49.632c-26.704-19.808-59.648-31.664-95.44-31.664-88.64 0-160.496 71.856-160.496 160.496 0 88.656 71.856 160.512 160.496 160.512 88.656 0 160.496-71.856 160.496-160.512 0-41.264-15.68-78.768-41.28-107.2l48.56-48.56c12.288 7.152 28.064 6 38.56-4.528l90.816-90.784c12.544-12.56 12.544-32.896 0.016-45.424zM289.408 297.776c0 66.48-53.904 120.368-120.384 120.368s-120.384-53.872-120.384-120.368 53.888-120.368 120.368-120.368 120.4 53.888 120.4 120.368z" />
<glyph unicode="&#xe6a3;" d="M466.496 0.624l-11.344-11.344c-12.56-12.544-32.88-12.544-45.408 0l-90.816 90.784c-10.496 10.528-11.664 26.304-4.496 38.592l-49.664 49.632c-26.704-19.808-59.648-31.664-95.44-31.664-88.64 0-160.496 71.856-160.496 160.496 0 88.656 71.856 160.512 160.496 160.512 88.656 0 160.496-71.856 160.496-160.512 0-41.264-15.68-78.768-41.28-107.2l48.56-48.56c12.288 7.152 28.064 6 38.56-4.528l90.816-90.784c12.544-12.56 12.544-32.896 0.016-45.424zM289.408 297.776c0 66.48-53.904 120.368-120.384 120.368s-120.384-53.872-120.384-120.368 53.888-120.368 120.368-120.368 120.4 53.888 120.4 120.368zM176.032 256.656h-16.048v31.088h-32.096v16.048h32.096v32.112h16.048v-32.112h32.112v-16.048h-32.112v-31.088z" />
<glyph unicode="&#xe6a4;" d="M127.888 303.792h80.256v-16.048h-80.256zM466.496 46.032l-90.816 90.784c-10.496 10.528-26.288 11.68-38.56 4.528l-48.56 48.56c25.6 28.432 41.28 65.936 41.28 107.2 0 88.656-71.84 160.512-160.496 160.512-88.64 0-160.496-71.856-160.496-160.512 0-88.64 71.856-160.496 160.496-160.496 35.792 0 68.736 11.856 95.44 31.664l49.664-49.632c-7.152-12.304-6-28.064 4.496-38.592l90.816-90.784c12.528-12.544 32.848-12.544 45.408 0l11.344 11.344c12.512 12.544 12.512 32.88-0.016 45.424zM169.008 177.408c-66.48 0-120.368 53.888-120.368 120.368s53.888 120.368 120.368 120.368 120.384-53.888 120.384-120.368-53.888-120.368-120.384-120.368z" />
<glyph unicode="&#xe6a6;" d="M513.365 191.828h-225.197v-225.197h225.197v225.197zM223.828-33.365v225.197h-225.197v-225.197h225.197zM223.828 481.365h-225.197v-225.197h225.197v225.197zM513.365 481.365h-225.197v-225.197h225.197v225.197z" />
<glyph unicode="&#xe6a7;" d="M-1.365 481.365v-128.684h514.736v128.684h-514.736zM-1.365 159.658h514.736v128.684h-514.736v-128.684zM-1.365-33.365h514.736v128.684h-514.736v-128.684z" />
<glyph unicode="&#xe6a8;" d="M-1.365 352.684h128.684v128.684h-128.684v-128.684zM-1.365 159.658h128.684v128.684h-128.684v-128.684zM-1.365-33.365h128.684v128.684h-128.684v-128.684zM191.658 481.365v-128.684h321.708v128.684h-321.708zM191.658 159.658h321.708v128.684h-321.708v-128.684zM191.658-33.365h321.708v128.684h-321.708v-128.684z" />
<glyph unicode="&#xe6a9;" d="M444.528 353.024c15.344-37.008 8.032-81.184-22.064-111.28-33.136-33.136-83.216-38.32-122.144-16.352l-28.144-30.736 20.080-20.16 12 12c6.128 6.144 16.080 6.144 22.208 0l97.312-98.304c6.144-6.128 6.144-16.080 0-22.208l-44.416-44.416c-6.128-6.144-16.080-6.144-22.208 0l-97.312 98.304c-6.144 6.128-6.144 16.080 0 22.208l10.96 10.96-19.136 19.184-134.576-147.024c-12.272-12.272-32.16-12.272-44.416 0l-11.104 11.104c-12.272 12.272-12.272 32.16 0 44.416l153.312 128.4-101.824 102.096-32.16 0.016-37.216 59.84 29.952 30 61.2-37.456 0.4-31.488 103.008-103.408 29.968 25.088c-29.296 39.936-26.24 96.192 9.856 132.288 29.952 29.952 73.888 37.392 110.8 22.336l-65.984-65.072 55.536-55.536 66.112 65.2zM98.4 65.056c-6.128 6.128-16.064 6.128-22.208 0-6.144-6.144-6.144-16.080 0-22.224 6.144-6.128 16.080-6.128 22.208 0 6.144 6.16 6.144 16.096 0 22.224z" />
<glyph unicode="&#xe6aa;" d="M400.672 181.248v199.792c0 19.744-16 35.776-35.776 35.776h-313.136c-19.76 0.016-35.776-16.016-35.776-35.776v-199.792c0-19.76 16.016-35.776 35.776-35.776h59.664v-82.192l91.264 82.192h162.192c19.792 0 35.792 16.016 35.792 35.776zM460.24 338.272h-44.768c0 0 0-159.552 0-174.544s-19.456-34.272-34.448-34.272-175.12-0.88-175.12-0.88c0-19.76 16.016-31.776 35.776-31.776h68.944l89.952-81.632-0.112 81.632h59.776c19.776 0 35.776 12.016 35.776 31.776v174.912c0 19.744-16 34.784-35.776 34.784z" />
<glyph unicode="&#xe6ab;" d="M402.112 269.36c0 82.64-90.032 149.632-201.056 149.632-111.040 0-201.056-66.992-201.056-149.632 0-49.664 32.512-93.664 82.56-120.88-0.144-0.432-39.872-72.72-39.872-72.72s121.312 46.272 121.648 46.464c11.904-1.648 24.176-2.48 36.72-2.48 111.024 0 201.056 66.992 201.056 149.616zM550.16 222.608c0 82.624-84.752 149.024-176.496 149.616 131.52-131.008-23.376-270.592-149.616-270.592 0 0 14.032-28.64 125.056-28.64 12.528 0 24.816 0.864 36.72 2.496 0.336-0.224 121.664-46.464 121.664-46.464s-39.744 72.272-39.872 72.704c50.032 27.216 82.544 71.232 82.544 120.88z" horiz-adv-x="550" />
<glyph unicode="&#xe6ac;" d="M412.56 400.768h-313.12c-19.76 0-35.776-16.032-35.776-35.776v-199.808c0-19.744 16.016-35.776 35.776-35.776h59.664l0.016-82.192 91.264 82.192h162.192c19.776 0 35.776 16.032 35.776 35.776v199.808c-0.016 19.744-16.016 35.776-35.792 35.776zM160 256.496c-8.848 0-16 7.168-16 16 0 8.848 7.152 16 16 16 8.832 0 16-7.152 16-16 0-8.832-7.168-16-16-16zM224 257.168c-8.848 0-16 7.168-16 16 0 8.848 7.152 16 16 16 8.832 0 16-7.152 16-16 0-8.832-7.168-16-16-16zM288.32 256.832c-8.832 0-16 7.152-16 16 0 8.832 7.168 16 16 16 8.848 0 16-7.168 16-16s-7.168-16-16-16zM352 256.496c-8.848 0-16 7.168-16 16 0 8.848 7.152 16 16 16 8.832 0 16-7.152 16-16 0-8.832-7.168-16-16-16z" />
<glyph unicode="&#xe6ad;" d="M256 395.616c-111.024 0-201.040-66.992-201.040-149.632 0-49.664 32.512-93.664 82.56-120.88-0.144-0.432-39.872-72.72-39.872-72.72s121.328 46.272 121.664 46.464c11.904-1.648 24.176-2.48 36.704-2.48 111.024 0 201.040 66.992 201.040 149.616-0.016 82.64-90.032 149.632-201.056 149.632zM159.488 230c-8.832 0-16 7.168-16 16 0 8.848 7.168 16 16 16s16-7.152 16-16c0-8.832-7.152-16-16-16zM223.152 229.328c-8.832 0-16 7.168-16 16 0 8.848 7.168 16 16 16 8.848 0 16-7.152 16-16 0-8.832-7.152-16-16-16zM287.808 229.328c-8.832 0-16 7.168-16 16 0 8.848 7.168 16 16 16 8.848 0 16-7.152 16-16 0-8.832-7.152-16-16-16zM351.808 229.328c-8.832 0-16 7.168-16 16 0 8.848 7.168 16 16 16 8.848 0 16-7.152 16-16 0-8.832-7.152-16-16-16z" />
<glyph unicode="&#xe6ae;" d="M441.984 144.72l-15.328-81.152h-341.312l-15.328 81.152h-38.16v-128.992h448.288v128.992h-38.16zM432.32 288.864h-112.352v46.88h-127.904v-46.88h-111.28l174.624-182.592 176.912 182.592zM319.952 416.288h-127.904v-17.056h127.904v17.056zM319.952 384.432h-127.904v-32.608h127.904v32.608z" />
<glyph unicode="&#xe6af;" d="M384 400h-256c-8.848 0-16-7.152-16-16v-336c0-8.832 7.152-16 16-16h256c8.832 0 16 7.168 16 16v336c0 8.848-7.168 16-16 16zM144 240h32v-32h-32v32zM144 192h32v-32h-32v32zM144 144h32v-32h-32v32zM224 64h-80v32h80v-32zM224 112h-32v32h32v-32zM224 160h-32v32h32v-32zM224 208h-32v32h32v-32zM272 64h-32v32h32v-32zM272 112h-32v32h32v-32zM272 160h-32v32h32v-32zM272 208h-32v32h32v-32zM320 64h-32v32h32v-32zM320 112h-32v32h32v-32zM320 160h-32v32h32v-32zM320 208h-32v32h32v-32zM368 64h-32v80h32v-80zM368 160h-32v32h32v-32zM368 208h-32v32h32v-32zM368 272h-224v96h224v-96z" />
<glyph unicode="&#xe6b0;" d="M368.976 264.944c0 0 18.752 14.256 4.496 28.512-14.288 14.256-28.16-4.144-28.16-4.144l-111.504-111.52c0 0-33.648-43.376-59.136-17.12s17.12 59.136 17.12 59.136l156.144 156.16c0 0 43.904 48.368 85.152 7.12 41.248-41.264-7.248-85.264-7.248-85.264l-211.408-211.424c0 0-67.648-78.144-130.288-15.504s16.256 129.52 16.256 129.52l160.544 160.544c0 0 18 15.008 4.496 28.512s-28.496-4.496-28.496-4.496l-184.16-184.176c0 0-69.52-76.272 8.128-153.888 77.648-77.648 153.904-8.144 153.904-8.144l253.152 253.168c0 0 50.624 55.888-9.744 116.288s-116.288 9.744-116.288 9.744l-185.76-185.776c0 0-55.84-45.344-5.2-95.968 50.64-50.64 95.216 5.952 95.216 5.952l122.784 122.768z" />
<glyph unicode="&#xe6b1;" d="M496.992 224c0-34-19.632-62.832-48.8-74.272v-37.28c0-8.8-7.136-15.936-15.92-15.936h-368.528c-8.816 0-15.936 7.136-15.936 15.936v37.28c-29.184 11.44-48.8 40.272-48.8 74.272s19.632 62.832 48.816 74.272v37.28c0 8.816 7.12 15.936 15.936 15.936h368.528c8.784 0 15.92-7.12 15.92-15.936v-37.28c29.168-11.44 48.784-40.272 48.784-74.272zM191.232 224h-63.744v-15.936h63.744v15.936zM266.912 278.336c-4.496 4.944-10.672 7.408-18.512 7.408-7.792 0-13.936-2.464-18.416-7.408-4.496-4.928-6.752-12.512-6.752-22.752 0-10.288 2.256-17.888 6.752-22.832 4.48-4.928 7.696-7.392 15.664-7.392 7.68 0 16.784 2.464 21.28 7.392 4.48 4.944 6.736 12.544 6.736 22.832-0.016 10.24-2.272 17.84-6.752 22.752zM321.12 288.24l-81.76-128.352h16.192l81.36 128.352h-15.792zM346.576 214.608c-4.48 4.928-10.672 7.392-18.512 7.392-7.776 0-13.936-2.464-18.432-7.392-4.48-4.944-6.72-12.512-6.72-22.752 0-10.288 2.24-17.904 6.72-22.832 4.496-4.944 10.72-7.408 18.688-7.408 7.68 0 13.776 2.464 18.272 7.408 4.48 4.928 6.736 12.544 6.736 22.832-0.016 10.24-2.272 17.808-6.752 22.752zM327.92 173.952c-2.304 0-4.096 0.976-5.392 2.896-1.712 2.512-2.576 7.504-2.576 14.976s0.864 12.48 2.576 15.040c1.248 1.872 3.040 2.832 5.392 2.832s4.176-0.96 5.472-2.832c1.664-2.56 2.496-7.584 2.496-15.040s-0.864-12.48-2.576-15.040c-1.248-1.888-3.040-2.832-5.392-2.832zM248.256 237.68c-2.304 0-4.096 0.976-5.392 2.912-1.712 2.512-2.576 7.504-2.576 14.976s0.864 12.48 2.576 15.040c1.248 1.872 3.040 2.816 5.392 2.816s4.16-0.944 5.472-2.816c1.664-2.56 2.496-7.584 2.496-15.040s-0.864-12.48-2.576-15.040c-1.264-1.888-3.056-2.848-5.392-2.848z" />
<glyph unicode="&#xe6b2;" d="M448 336h-31.328v47.008l-64.672 0.992 0.336-48h-194.336l1.328 48-63.328-0.992v-48l-32 0.992c-17.664 0-32-14.336-32-32v-224c0-17.664 14.336-32 32-32h384c17.664 0 32 14.336 32 32v224c0 17.664-14.336 32-32 32zM368 368h32v-64h-32v64zM160 259.008c19.328 0 35.008-20.592 35.008-46s-15.68-46-35.008-46-35.008 20.592-35.008 46 15.68 46 35.008 46zM112 368h32v-64h-32v64zM90.672 112.832c0 0 3.792 30.432 12.416 36.176 8.608 5.744 33.44 9.568 33.44 9.568s16.096-17.2 22.944-17.2c6.832 0 22.928 17.2 22.928 17.2s24.832-3.808 33.456-9.568c10.128-6.752 12.656-36.176 12.656-36.176h-137.84zM416 128h-144v16h144v-16zM416 160h-144v16h144v-16zM416 192h-144v16h144v-16zM416 224h-144v16h144v-16z" />
<glyph unicode="&#xe6b3;" d="M368 303.504c0 8.848-7.168 16-16 16h-48c0 0 0.528 19.264 0.528 47.264 0 26-21.536 49.728-48.528 49.728s-47.808-22.576-47.808-49.584c0-26-0.192-47.424-0.192-47.424h-48c-8.848 0-16-7.152-16-16 0-8.832 0-31.008 0-31.008h224c0 0.016 0 22.192 0 31.024zM256 336.496c-8.848 0-16 7.168-16 16 0 8.848 7.152 16 16 16 8.832 0 16-7.152 16-16 0-8.832-7.168-16-16-16zM448 303.504l-64 0.992 0.336-49.664h-256.336v47.664l-64 0.992c-17.664 0-32-14.336-32-32v-224c0-17.664 14.336-32 32-32h384c17.664 0 32 14.336 32 32v224c0 17.68-14.336 32.016-32 32.016zM160 210.496c19.328 0 35.008-20.592 35.008-46s-15.68-46-35.008-46-35.008 20.592-35.008 46 15.68 46 35.008 46zM90.672 64.336c0 0 3.792 30.432 12.416 36.176 8.608 5.744 33.44 9.568 33.44 9.568s16.096-17.2 22.944-17.2c6.832 0 22.928 17.2 22.928 17.2s24.832-3.808 33.456-9.568c10.128-6.752 12.656-36.176 12.656-36.176h-137.84zM416 79.504h-144v16h144v-16zM416 111.504h-144v16h144v-16zM416 143.504h-144v16h144v-16zM416 175.504h-144v16h144v-16z" />
<glyph unicode="&#xe6b6;" d="M394.784 129.456c0 0 53.28 36.448 53.28 108.336 0 107.008-113.408 146.576-174.384 145.52-60.992-1.072-79.168-17.12-79.168-17.12s-20.752 15.088-42.752 27.728c-16.832 6.56-20.736 7.504-32.432 3.744-9.36 0-3.472-15.584 0.288-21.2 3.728-5.616 21.856-36.64 21.856-36.64s-38.048-39.184-40.864-64.944c0 0.464-17.92 0.144-27.744 0.144s-8.896-10.704-8.896-10.704l0.272-75.424c0 0-0.608-10.704 8.304-10.704 8.896 0 27.808-0.208 27.808-0.208s26.608-38.64 43.472-45.664c0-0.464-14.576-40.048-14.576-40.048s-7.024-12.176 5.616-16.864c12.64-4.672 45.616-18.512 59.664-22.736 14.032-4.208 16.048 5.344 16.048 5.344l13.904 30.032 90.96-0.144 13.904-30.96c0 0 2.672-14.368 21.392-6.416 18.736 7.952 39.184 17.392 54.64 25.344 15.44 7.952 5.28 22.816 5.28 22.816l-15.872 30.768zM149.152 259.776c-8.528 0-15.44 6.928-15.44 15.456s6.912 15.44 15.44 15.44 15.456-6.912 15.456-15.44-6.928-15.456-15.456-15.456zM366.8 307.904c-4.928-5.84-8.144-1.536-12.112-0.368 0 0-16.816 15.6-41.52 22.88-25.584 7.52-52.512 3.888-52.512 3.888-3.968 1.168-8.784 1.296-8.816 7.424 0.208 7.568 9.392 7.632 9.28 7.888 0 0 30.304 2.8 55.664-4.656 24.944-7.328 44-23.264 44-23.264s10.192-7.024 6.016-13.792z" />
<glyph unicode="&#xe6b8;" d="M256.24 178.224l-65.152 53.488-141.792-167.408h414.016l-141.808 169.072-65.264-55.152zM478.816 383.696h-445.040l222.528-187.168 222.512 187.168zM331.28 241.808l148.656-177.344v303.232l-148.656-125.888zM32.064 367.696v-303.232l148.656 177.344-148.656 125.888z" />
<glyph unicode="&#xe6b9;" d="M256.672 346.48c0 0-32 68.192-104 68.192-78.672 0-120-66.672-120-133.328 0-110.672 224-248 224-248s222.656 136 222.656 248c0 68-42.656 133.328-118.656 133.328s-104-68.192-104-68.192z" />
<glyph unicode="&#xe6ba;" d="M259.952 404.272c0-26.944 20.336-45.2 45.44-45.2s45.472 18.272 45.472 45.2c0 26.96-20.352 45.216-45.472 45.216-25.088 0-45.44-18.256-45.44-45.216zM161.536 250c0-5.344-0.976-18.608 0.128-26.592l39.664 47.728c8.208 8.992 17.696 15.28 22.544 13.584 4.864-1.696 7.52-7.408 5.936-12.72l-65.648-217.44c-7.568-25.408 6.736-50.368 41.584-56.064 51.024 0 81.344 34.528 111.168 79.28 0 5.344 1.776 19.408 0.704 27.408l-39.664-47.712c-8.224-8.992-18.416-15.28-23.28-13.6-4.48 1.568-7.104 6.56-6.224 11.536l66.112 218.448c5.504 27.744-9.44 52.992-41.024 56.224-33.216-0.016-82.176-35.344-112-80.080z" />
<glyph unicode="&#xe6be;" d="M424 48h-48c-4.416 0-8 3.584-8 8s3.584 8 8 8h40v40c0 4.416 3.584 8 8 8 4.4 0 8-3.584 8-8v-48c0-4.416-3.6-8-8-8zM424 144c-4.416 0-8 3.584-8 8v48c0 4.416 3.584 8 8 8 4.4 0 8-3.584 8-8v-48c0-4.416-3.6-8-8-8zM424 240c-4.416 0-8 3.584-8 8v48c0 4.416 3.584 8 8 8 4.4 0 8-3.584 8-8v-48c0-4.416-3.6-8-8-8zM424 336c-4.416 0-8 3.584-8 8v40h-40c-4.416 0-8 3.584-8 8s3.584 8 8 8h48c4.4 0 8-3.584 8-8v-48c0-4.416-3.6-8-8-8zM234.656 143.152c-2.944-2.96-7.728-2.96-10.688 0l-16.032 16.032c-0.032 0.048-0.016 0.112-0.048 0.144l-51.008 51.392c-2.96 2.944-2.96 7.728 0 10.688l16.032 16.048c2.96 2.96 7.744 2.96 10.704 0l45.76-46.096 96.224 96.208c2.944 2.96 7.728 2.96 10.688 0l16.032-16.048c2.976-2.96 2.976-7.744 0-10.704l-117.664-117.664zM328 384h-48c-4.416 0-8 3.584-8 8s3.584 8 8 8h48c4.4 0 8-3.584 8-8s-3.6-8-8-8zM232 384h-48c-4.416 0-8 3.584-8 8s3.584 8 8 8h48c4.4 0 8-3.584 8-8s-3.6-8-8-8zM136 48h-48c-4.416 0-8 3.584-8 8v48c0 4.416 3.584 8 8 8s8-3.584 8-8v-40h40c4.416 0 8-3.584 8-8s-3.584-8-8-8zM136 384h-40v-40c0-4.416-3.584-8-8-8s-8 3.584-8 8v48c0 4.416 3.584 8 8 8h48c4.416 0 8-3.584 8-8s-3.584-8-8-8zM88 304c4.416 0 8-3.584 8-8v-48c0-4.416-3.584-8-8-8s-8 3.584-8 8v48c0 4.416 3.584 8 8 8zM88 208c4.416 0 8-3.584 8-8v-48c0-4.416-3.584-8-8-8s-8 3.584-8 8v48c0 4.416 3.584 8 8 8zM184 64h48c4.4 0 8-3.584 8-8s-3.6-8-8-8h-48c-4.416 0-8 3.584-8 8s3.584 8 8 8zM280 64h48c4.4 0 8-3.584 8-8s-3.6-8-8-8h-48c-4.416 0-8 3.584-8 8s3.584 8 8 8z" />
<glyph unicode="&#xe6bf;" d="M424 48h-48c-4.416 0-8 3.584-8 8s3.584 8 8 8h40v40c0 4.416 3.584 8 8 8 4.4 0 8-3.584 8-8v-48c0-4.416-3.6-8-8-8zM424 144c-4.416 0-8 3.584-8 8v48c0 4.416 3.584 8 8 8 4.4 0 8-3.584 8-8v-48c0-4.416-3.6-8-8-8zM424 240c-4.416 0-8 3.584-8 8v48c0 4.416 3.584 8 8 8 4.4 0 8-3.584 8-8v-48c0-4.416-3.6-8-8-8zM424 336c-4.416 0-8 3.584-8 8v40h-40c-4.416 0-8 3.584-8 8s3.584 8 8 8h48c4.4 0 8-3.584 8-8v-48c0-4.416-3.6-8-8-8zM328 48h-48c-4.416 0-8 3.584-8 8s3.584 8 8 8h48c4.4 0 8-3.584 8-8s-3.6-8-8-8zM328 384h-48c-4.416 0-8 3.584-8 8s3.584 8 8 8h48c4.4 0 8-3.584 8-8s-3.6-8-8-8zM232 384h-48c-4.416 0-8 3.584-8 8s3.584 8 8 8h48c4.4 0 8-3.584 8-8s-3.6-8-8-8zM136 48h-48c-4.416 0-8 3.584-8 8v48c0 4.416 3.584 8 8 8s8-3.584 8-8v-40h40c4.416 0 8-3.584 8-8s-3.584-8-8-8zM136 384h-40v-40c0-4.416-3.584-8-8-8s-8 3.584-8 8v48c0 4.416 3.584 8 8 8h48c4.416 0 8-3.584 8-8s-3.584-8-8-8zM88 304c4.416 0 8-3.584 8-8v-48c0-4.416-3.584-8-8-8s-8 3.584-8 8v48c0 4.416 3.584 8 8 8zM88 208c4.416 0 8-3.584 8-8v-48c0-4.416-3.584-8-8-8s-8 3.584-8 8v48c0 4.416 3.584 8 8 8zM331.776 164.432l-16.224-16.224c-2.976-2.992-7.808-2.992-10.8 0l-45.92 45.92-45.92-45.92c-2.992-2.992-7.808-2.992-10.8 0l-16.208 16.224c-2.992 2.992-2.992 7.808 0 10.8l45.936 45.92-45.936 45.92c-2.992 2.976-2.992 7.808 0 10.8l16.208 16.208c2.992 2.992 7.808 2.992 10.8 0l45.92-45.92 45.92 45.92c2.992 2.992 7.824 2.992 10.8 0l16.224-16.208c2.976-2.992 2.976-7.824 0-10.8l-45.936-45.92 45.936-45.92c2.976-2.976 2.976-7.808 0-10.8zM184 64h48c4.4 0 8-3.584 8-8s-3.6-8-8-8h-48c-4.416 0-8 3.584-8 8s3.584 8 8 8z" />
<glyph unicode="&#xe6c0;" d="M424 48h-48c-4.416 0-8 3.584-8 8s3.584 8 8 8h40v40c0 4.416 3.584 8 8 8 4.4 0 8-3.584 8-8v-48c0-4.416-3.6-8-8-8zM424 144c-4.416 0-8 3.584-8 8v48c0 4.416 3.584 8 8 8 4.4 0 8-3.584 8-8v-48c0-4.416-3.6-8-8-8zM424 240c-4.416 0-8 3.584-8 8v48c0 4.416 3.584 8 8 8 4.4 0 8-3.584 8-8v-48c0-4.416-3.6-8-8-8zM424 336c-4.416 0-8 3.584-8 8v40h-40c-4.416 0-8 3.584-8 8s3.584 8 8 8h48c4.4 0 8-3.584 8-8v-48c0-4.416-3.6-8-8-8zM328 48h-48c-4.416 0-8 3.584-8 8s3.584 8 8 8h48c4.4 0 8-3.584 8-8s-3.6-8-8-8zM328 384h-48c-4.416 0-8 3.584-8 8s3.584 8 8 8h48c4.4 0 8-3.584 8-8s-3.6-8-8-8zM319.008 240c8.832 0 16-7.152 16-16 0-8.832-7.168-16-16-16h-48v-48c0-8.832-7.168-16-16-16-8.848 0-16 7.168-16 16v48h-48c-8.832 0-16 7.168-16 16 0 8.848 7.152 16 16 16h48v48c0 8.848 7.152 16 16 16 8.832 0 16-7.152 16-16v-48h48zM232 384h-48c-4.416 0-8 3.584-8 8s3.584 8 8 8h48c4.4 0 8-3.584 8-8s-3.6-8-8-8zM136 48h-48c-4.416 0-8 3.584-8 8v48c0 4.416 3.584 8 8 8s8-3.584 8-8v-40h40c4.416 0 8-3.584 8-8s-3.584-8-8-8zM136 384h-40v-40c0-4.416-3.584-8-8-8s-8 3.584-8 8v48c0 4.416 3.584 8 8 8h48c4.416 0 8-3.584 8-8s-3.584-8-8-8zM88 304c4.416 0 8-3.584 8-8v-48c0-4.416-3.584-8-8-8s-8 3.584-8 8v48c0 4.416 3.584 8 8 8zM88 208c4.416 0 8-3.584 8-8v-48c0-4.416-3.584-8-8-8s-8 3.584-8 8v48c0 4.416 3.584 8 8 8zM184 64h48c4.4 0 8-3.584 8-8s-3.6-8-8-8h-48c-4.416 0-8 3.584-8 8s3.584 8 8 8z" />
<glyph unicode="&#xe6c1;" d="M136 400h-48c-4.416 0-8-3.584-8-8v-48c0-4.416 3.584-8 8-8s8 3.584 8 8v40h40c4.416 0 8 3.584 8 8s-3.584 8-8 8zM184 384h48c4.4 0 8 3.584 8 8s-3.6 8-8 8h-48c-4.416 0-8-3.584-8-8s3.584-8 8-8zM328 400h-48c-4.416 0-8-3.584-8-8s3.584-8 8-8h48c4.4 0 8 3.584 8 8s-3.6 8-8 8zM424 400h-48c-4.416 0-8-3.584-8-8s3.584-8 8-8h40v-40c0-4.416 3.584-8 8-8 4.4 0 8 3.584 8 8v48c0 4.416-3.6 8-8 8zM424 304c-4.416 0-8-3.584-8-8v-48c0-4.416 3.584-8 8-8 4.4 0 8 3.584 8 8v48c0 4.416-3.6 8-8 8zM424 208c-4.416 0-8-3.584-8-8v-48c0-4.416 3.584-8 8-8 4.4 0 8 3.584 8 8v48c0 4.416-3.6 8-8 8zM424 112c-4.416 0-8-3.584-8-8v-40h-40c-4.416 0-8-3.584-8-8s3.584-8 8-8h48c4.4 0 8 3.584 8 8v48c0 4.416-3.6 8-8 8zM328 64h-48c-4.416 0-8-3.584-8-8s3.584-8 8-8h48c4.4 0 8 3.584 8 8s-3.6 8-8 8zM232 64h-48c-4.416 0-8-3.584-8-8s3.584-8 8-8h48c4.4 0 8 3.584 8 8s-3.6 8-8 8zM136 64h-40v40c0 4.416-3.584 8-8 8s-8-3.584-8-8v-48c0-4.416 3.584-8 8-8h48c4.416 0 8 3.584 8 8s-3.584 8-8 8zM88 144c4.416 0 8 3.584 8 8v48c0 4.416-3.584 8-8 8s-8-3.584-8-8v-48c0-4.416 3.584-8 8-8zM88 240c4.416 0 8 3.584 8 8v48c0 4.416-3.584 8-8 8s-8-3.584-8-8v-48c0-4.416 3.584-8 8-8zM191.008 208h128c8.848 0 16 7.168 16 16 0 8.848-7.152 16-16 16h-128c-8.848 0-16-7.152-16-16 0-8.832 7.152-16 16-16z" />
<glyph unicode="&#xe6c2;" d="M267.552 130.192c-7.296 6.912-15.808 12.224-25.104 15.536l-19.488 75.888 232.096 64.928 24.864-96.896-212.368-59.456zM193.664 335.696l154.736 43.28 24.88-96.928-154.72-43.28-24.896 96.928zM200.608 147.184c-4.32-1.216-8.336-2.944-12.24-4.848l-68.224 265.84h-25.664c-2.576-5.616-7.968-9.568-14.336-9.568h-32.032c-8.848 0-16.016 7.504-16.016 16.736s7.168 16.72 16.016 16.72h32.032c5.376 0 9.888-2.944 12.8-7.152h49.28v-0.816l0.736 0.224 70.56-274.928c-4.304-0.4-8.608-1.024-12.912-2.208zM204.752 131.024c29.904 8.368 60.64-10.16 68.656-41.408 8.016-31.216-9.728-63.312-39.648-71.68-29.904-8.336-60.64 10.192-68.656 41.408s9.744 63.312 39.648 71.68zM196.32 66.976c3.424-13.376 16.608-21.312 29.424-17.712s20.416 17.344 16.992 30.72c-3.424 13.376-16.608 21.312-29.424 17.744-12.832-3.6-20.432-17.36-16.992-30.752zM477.92 132.784l-186.944-52.288c-0.336 4.464-0.96 8.976-2.112 13.472-1.136 4.496-2.784 8.72-4.624 12.784l185.968 52 7.712-25.968z" />
<glyph unicode="&#xe6c3;" d="M256.528-0.064c0 0-176.592 109.328-176.592 197.424 0 48.848 27.92 97.136 80.672 104.608v34.32c0 52.912 42.992 95.776 96 95.776 53.024 0 96-42.88 96-95.776v-34.336c50.912-7.6 79.472-54.944 79.472-104.576-0.016-89.184-175.552-197.44-175.552-197.44zM231.6 96.848h48.992l-20.768 55.52c11.648 1.632 20.768 11.216 20.768 23.296 0 13.216-10.752 23.952-24 23.952s-24-10.736-24-23.952c0-11.488 8.288-20.64 19.104-22.96l-20.096-55.856zM320.592 336.288c0 35.264-28.656 63.856-64 63.856s-64-28.592-64-63.856v-34.912c44-9.712 63.92-52.16 63.92-52.16s17.76 42.944 64.064 52.272v34.8z" />
<glyph unicode="&#xe6c4;" d="M415.904 221.696l-195.6 195.6-188.304-0.72 0.288-173.296 202.592-202.592c12.704-12.72 33.152-12.896 45.664-0.384l135.744 135.76c12.496 12.496 12.336 32.928-0.384 45.632zM113.296 304.768c-17.664 0-32 14.336-32 32s14.336 32 32 32c17.68 0 32-14.336 32-32s-14.32-32-32-32zM461.536 221.312l-195.6 195.6-23.536-0.080 196.32-195.312c12.72-12.72 12.88-33.136 0.368-45.648l-135.744-135.76c-3.312-3.312-7.216-5.664-11.344-7.216 11.536-4.432 24.976-2.16 34.16 7.008l135.776 135.76c12.496 12.512 12.32 32.944-0.4 45.648z" />
<glyph unicode="&#xe6c5;" d="M384 272.368c-61.856 0-112-50.528-112-112.88 0-35.52 16.32-67.152 41.744-87.856-32.896-24.4-57.744-39.808-57.744-39.808s-224 138.432-224 249.952c0 67.2 41.328 134.384 120 134.384 72 0 104-68.736 104-68.736s28 68.736 104 68.736 118.656-65.84 118.656-134.384c0-15.328-4.352-31.088-11.456-46.912-20.496 22.976-50.144 37.504-83.2 37.504zM384 256.256c53.008 0 96-43.312 96-96.752s-42.992-96.768-96-96.768c-53.024 0-96 43.328-96 96.768s42.976 96.752 96 96.752zM336 143.376h32v-32.256h32v32.256h32v32.256h-32v32.256h-32v-32.256h-32v-32.256z" />
<glyph unicode="&#xe6c6;" d="M384 272.368c-61.856 0-112-50.528-112-112.88 0-35.52 16.32-67.152 41.744-87.856-32.896-24.4-57.744-39.808-57.744-39.808s-224 138.432-224 249.952c0 67.2 41.328 134.384 120 134.384 72 0 104-68.736 104-68.736s28 68.736 104 68.736 118.656-65.84 118.656-134.384c0-15.328-4.352-31.088-11.456-46.912-20.496 22.976-50.144 37.504-83.2 37.504zM384 256.256c53.008 0 96-43.312 96-96.752s-42.992-96.768-96-96.768c-53.024 0-96 43.328-96 96.768s42.976 96.752 96 96.752zM336 143.376h96v32.256h-96v-32.256z" />
<glyph unicode="&#xe6c9;" d="M248-16.992c-110.464 0-200 89.552-200 200 0 85.040 53.168 157.504 128 186.416v-71.184c-38.384-24.048-64-66.592-64-115.232 0-75.104 60.896-136 136-136s136 60.896 136 136c0 41.536-18.656 78.64-48 103.6v75.776c66.288-32.576 112-100.544 112-179.392 0-110.448-89.552-199.984-200-199.984zM256 207.008c-17.664 0-32 14.336-32 32v177.984c0 17.664 14.336 32 32 32s32-14.336 32-32v-178c0-17.664-14.336-31.984-32-31.984z" />
<glyph unicode="&#xf00c;" d="M477.428 313.714q0-11.428-8-19.428l-245.714-245.714q-8-8-19.428-8t-19.428 8l-142.286 142.286q-8 8-8 19.428t8 19.428l38.857 38.857q8 8 19.428 8t19.428-8l84-84.285 187.429 187.714q8 8 19.428 8t19.428-8l38.857-38.857q8-8 8-19.428z" />
<glyph unicode="&#xf00d;" d="M370.857 97.714q0-11.428-8-19.428l-38.857-38.857q-8-8-19.428-8t-19.428 8l-84 84-84-84q-8-8-19.428-8t-19.428 8l-38.857 38.857q-8 8-8 19.428t8 19.428l84 84-84 84q-8 8-8 19.428t8 19.428l38.857 38.857q8 8 19.428 8t19.428-8l84-84 84 84q8 8 19.428 8t19.428-8l38.857-38.857q8-8 8-19.428t-8-19.428l-84-84 84-84q8-8 8-19.428z" horiz-adv-x="403" />
<glyph unicode="&#xf00e;" d="M292.572 246.857v-18.285q0-3.714-2.714-6.428t-6.428-2.714h-64v-64q0-3.714-2.714-6.428t-6.428-2.714h-18.286q-3.714 0-6.428 2.714t-2.714 6.428v64h-64q-3.715 0-6.428 2.714t-2.715 6.428v18.286q0 3.714 2.715 6.428t6.428 2.714h64v64q0 3.714 2.714 6.428t6.428 2.714h18.286q3.714 0 6.428-2.714t2.714-6.428v-64h64q3.714 0 6.428-2.714t2.714-6.428zM329.143 237.714q0 52.857-37.572 90.428t-90.428 37.571-90.428-37.571-37.572-90.428 37.572-90.428 90.428-37.572 90.428 37.572 37.572 90.428zM475.428 0q0-15.143-10.714-25.857t-25.857-10.715q-15.428 0-25.714 10.857l-98 97.714q-51.143-35.428-114-35.428-40.857 0-78.143 15.857t-64.285 42.857-42.857 64.286-15.857 78.143 15.857 78.143 42.857 64.285 64.285 42.857 78.143 15.857 78.143-15.857 64.286-42.857 42.857-64.285 15.857-78.143q0-62.857-35.428-114l98-98q10.572-10.572 10.572-25.714z" horiz-adv-x="476" />
<glyph unicode="&#xf010;" d="M292.572 246.857v-18.285q0-3.714-2.714-6.428t-6.428-2.714h-164.571q-3.715 0-6.428 2.714t-2.715 6.428v18.286q0 3.714 2.715 6.428t6.428 2.714h164.571q3.714 0 6.428-2.714t2.714-6.428zM329.143 237.714q0 52.857-37.572 90.428t-90.428 37.571-90.428-37.571-37.572-90.428 37.572-90.428 90.428-37.572 90.428 37.572 37.572 90.428zM475.428 0q0-15.143-10.714-25.857t-25.857-10.715q-15.428 0-25.714 10.857l-98 97.714q-51.143-35.428-114-35.428-40.857 0-78.143 15.857t-64.285 42.857-42.857 64.286-15.857 78.143 15.857 78.143 42.857 64.285 64.285 42.857 78.143 15.857 78.143-15.857 64.286-42.857 42.857-64.285 15.857-78.143q0-62.857-35.428-114l98-98q10.572-10.572 10.572-25.714z" horiz-adv-x="476" />
<glyph unicode="&#xf015;" d="M402.286 192v-137.143q0-7.428-5.428-12.857t-12.857-5.428h-109.714v109.714h-73.143v-109.714h-109.715q-7.428 0-12.857 5.428t-5.428 12.857v137.143q0 0.286 0.143 0.857t0.143 0.857l164.286 135.428 164.285-135.428q0.286-0.572 0.286-1.714zM466 211.714l-17.714-21.143q-2.286-2.572-6-3.143h-0.857q-3.714 0-6 2l-197.714 164.857-197.714-164.857q-3.428-2.286-6.857-2-3.715 0.572-6 3.143l-17.715 21.143q-2.285 2.857-2 6.714t3.143 6.143l205.428 171.143q9.143 7.428 21.714 7.428t21.714-7.428l69.714-58.286v55.714q0 4 2.572 6.572t6.572 2.572h54.857q4 0 6.572-2.572t2.572-6.572v-116.572l62.572-52q2.857-2.286 3.143-6.143t-2-6.714z" horiz-adv-x="476" />
<glyph unicode="&#xf019;" d="M365.714 91.429q0 7.428-5.428 12.857t-12.857 5.428-12.857-5.428-5.428-12.857 5.428-12.857 12.857-5.428 12.857 5.428 5.428 12.857zM438.857 91.429q0 7.428-5.428 12.857t-12.857 5.428-12.857-5.428-5.428-12.857 5.428-12.857 12.857-5.428 12.857 5.428 5.428 12.857zM475.428 155.429v-91.428q0-11.428-8-19.428t-19.428-8h-420.572q-11.428 0-19.428 8t-8 19.428v91.428q0 11.428 8 19.428t19.428 8h132.857l38.571-38.857q16.572-16 38.857-16t38.857 16l38.857 38.857h132.572q11.428 0 19.428-8t8-19.428zM382.572 318q4.857-11.714-4-20l-128-128q-5.143-5.428-12.857-5.428t-12.857 5.428l-128 128q-8.857 8.286-4 20 4.857 11.143 16.857 11.143h73.143v128q0 7.429 5.428 12.857t12.857 5.428h73.143q7.428 0 12.857-5.428t5.428-12.857v-128h73.143q12 0 16.857-11.143z" horiz-adv-x="476" />
<glyph unicode="&#xf01e;" d="M438.857 402.286v-128q0-7.428-5.428-12.857t-12.857-5.428h-128q-12 0-16.857 11.428-4.857 11.143 4 19.714l39.428 39.428q-42.286 39.143-99.714 39.143-29.714 0-56.714-11.572t-46.715-31.285-31.285-46.714-11.572-56.714 11.572-56.714 31.285-46.714 46.715-31.286 56.714-11.572q34 0 64.286 14.857t51.143 42q2 2.857 6.572 3.428 4 0 7.143-2.572l39.143-39.428q2.572-2.286 2.714-5.857t-2.143-6.428q-31.143-37.714-75.428-58.428t-93.428-20.714q-44.572 0-85.143 17.428t-70 46.857-46.857 70-17.428 85.143 17.428 85.143 46.857 70 70 46.857 85.143 17.428q42 0 81.286-15.857t69.857-44.715l37.143 36.857q8.286 8.857 20 4 11.143-4.857 11.143-16.857z" />
<glyph unicode="&#xf021;" d="M431.714 173.714q0-1.428-0.286-2-18.286-76.572-76.572-124.143t-136.571-47.572q-41.715 0-80.715 15.714t-69.572 44.857l-36.857-36.857q-5.428-5.428-12.857-5.428t-12.857 5.428-5.428 12.857v128q0 7.428 5.428 12.857t12.857 5.428h128q7.428 0 12.857-5.428t5.429-12.857-5.428-12.857l-39.143-39.143q20.285-18.857 46-29.143t53.429-10.286q38.286 0 71.428 18.572t53.143 51.143q3.143 4.857 15.143 33.428 2.286 6.572 8.572 6.572h54.857q3.714 0 6.428-2.714t2.714-6.428zM438.857 402.286v-128q0-7.428-5.428-12.857t-12.857-5.428h-128q-7.428 0-12.857 5.428t-5.428 12.857 5.428 12.857l39.428 39.428q-42.286 39.143-99.714 39.143-38.286 0-71.428-18.571t-53.143-51.143q-3.143-4.857-15.143-33.428-2.285-6.572-8.572-6.572h-56.857q-3.715 0-6.428 2.714t-2.715 6.428v2q18.572 76.572 77.143 124.143t137.143 47.572q41.714 0 81.143-15.857t70-44.714l37.143 36.857q5.428 5.428 12.857 5.428t12.857-5.428 5.428-12.857z" />
<glyph unicode="&#xf02f;" d="M109.715 36.572h256v73.143h-256v-73.143zM109.715 219.429h256v109.714h-45.714q-11.428 0-19.428 8t-8 19.428v45.714h-182.857v-182.857zM438.857 201.143q0 7.428-5.428 12.857t-12.857 5.428-12.857-5.428-5.428-12.857 5.428-12.857 12.857-5.428 12.857 5.428 5.428 12.857zM475.428 201.143v-118.857q0-3.714-2.714-6.428t-6.428-2.714h-64v-45.714q0-11.428-8-19.428t-19.428-8h-274.286q-11.428 0-19.428 8t-8 19.428v45.714h-64q-3.715 0-6.428 2.714t-2.715 6.428v118.857q0 22.572 16.143 38.714t38.715 16.143h18.285v155.429q0 11.428 8 19.428t19.428 8h192q11.428 0 25.143-5.714t21.714-13.715l43.428-43.428q8-8 13.714-21.714t5.714-25.143v-73.143h18.286q22.572 0 38.714-16.143t16.143-38.714z" horiz-adv-x="476" />
<glyph unicode="&#xf046;" d="M402.286 209.714v-90.857q0-34-24.143-58.143t-58.143-24.143h-237.714q-34 0-58.143 24.143t-24.143 58.143v237.714q0 34 24.143 58.143t58.143 24.143h237.714q18 0 33.428-7.143 4.286-2 5.143-6.572 0.857-4.857-2.572-8.285l-14-14q-2.857-2.857-6.572-2.857-0.857 0-2.572 0.572-6.572 1.714-12.857 1.714h-237.714q-18.857 0-32.285-13.428t-13.428-32.286v-237.714q0-18.857 13.428-32.286t32.285-13.428h237.714q18.857 0 32.286 13.428t13.428 32.286v72.572q0 3.714 2.572 6.286l18.286 18.286q2.857 2.857 6.572 2.857 1.714 0 3.428-0.857 5.714-2.286 5.714-8.286zM468.286 349.429l-232.571-232.572q-6.857-6.857-16.285-6.857t-16.286 6.857l-122.857 122.857q-6.857 6.857-6.857 16.286t6.857 16.286l31.428 31.428q6.857 6.857 16.285 6.857t16.285-6.857l75.143-75.143 184.857 184.857q6.857 6.857 16.286 6.857t16.286-6.857l31.428-31.429q6.857-6.857 6.857-16.285t-6.857-16.286z" horiz-adv-x="476" />
<glyph unicode="&#xf047;" d="M512 219.429q0-7.428-5.428-12.857l-73.143-73.143q-5.428-5.428-12.857-5.428t-12.857 5.428-5.428 12.857v36.572h-109.714v-109.714h36.572q7.428 0 12.857-5.428t5.428-12.857-5.428-12.857l-73.143-73.143q-5.428-5.428-12.857-5.428t-12.857 5.428l-73.143 73.143q-5.428 5.428-5.428 12.857t5.428 12.857 12.857 5.428h36.571v109.714h-109.715v-36.572q0-7.428-5.428-12.857t-12.857-5.428-12.857 5.428l-73.143 73.143q-5.428 5.428-5.428 12.857t5.428 12.857l73.143 73.143q5.428 5.428 12.857 5.428t12.857-5.428 5.428-12.857v-36.571h109.715v109.714h-36.572q-7.428 0-12.857 5.428t-5.429 12.857 5.428 12.857l73.143 73.143q5.429 5.428 12.857 5.428t12.857-5.428l73.143-73.143q5.428-5.428 5.428-12.857t-5.428-12.857-12.857-5.428h-36.572v-109.714h109.714v36.572q0 7.428 5.428 12.857t12.857 5.429 12.857-5.428l73.143-73.143q5.428-5.428 5.428-12.857z" />
<glyph unicode="&#xf053;" d="M212 26l-186.286 186q-10.572 10.572-10.572 25.857t10.572 25.857l186.286 186q10.572 10.571 25.857 10.571t25.857-10.571l21.428-21.429q10.572-10.571 10.572-25.857t-10.572-25.857l-138.857-138.857 138.857-138.571q10.572-10.857 10.572-26t-10.572-25.714l-21.428-21.428q-10.572-10.572-25.857-10.572t-25.857 10.572z" horiz-adv-x="329" />
<glyph unicode="&#xf054;" d="M314 237.714q0-14.857-10.572-26l-186.286-186q-10.572-10.572-25.715-10.572t-25.715 10.572l-21.715 21.428q-10.572 11.143-10.572 26 0 15.143 10.572 25.714l138.857 138.857-138.857 138.572q-10.572 11.143-10.572 26 0 15.143 10.572 25.714l21.715 21.428q10.285 10.857 25.715 10.857t25.715-10.857l186.286-186q10.572-10.571 10.572-25.714z" horiz-adv-x="329" />
<glyph unicode="&#xf055;" d="M347.428 201.143v36.572q0 7.428-5.428 12.857t-12.857 5.429h-73.143v73.143q0 7.429-5.428 12.857t-12.857 5.428h-36.571q-7.428 0-12.857-5.428t-5.429-12.857v-73.143h-73.143q-7.428 0-12.857-5.428t-5.428-12.857v-36.571q0-7.428 5.428-12.857t12.857-5.428h73.143v-73.143q0-7.428 5.428-12.857t12.857-5.428h36.571q7.428 0 12.857 5.428t5.429 12.857v73.143h73.143q7.428 0 12.857 5.428t5.428 12.857zM438.857 219.429q0-59.714-29.428-110.143t-79.857-79.857-110.143-29.428-110.143 29.428-79.857 79.857-29.428 110.143 29.428 110.143 79.857 79.857 110.143 29.428 110.143-29.428 79.857-79.857 29.428-110.143z" />
<glyph unicode="&#xf056;" d="M347.428 201.143v36.572q0 7.428-5.428 12.857t-12.857 5.429h-219.429q-7.428 0-12.857-5.428t-5.428-12.857v-36.571q0-7.428 5.428-12.857t12.857-5.428h219.429q7.428 0 12.857 5.428t5.428 12.857zM438.857 219.429q0-59.714-29.428-110.143t-79.857-79.857-110.143-29.428-110.143 29.428-79.857 79.857-29.428 110.143 29.428 110.143 79.857 79.857 110.143 29.428 110.143-29.428 79.857-79.857 29.428-110.143z" />
<glyph unicode="&#xf058;" d="M366.857 265.714q0 8-5.143 13.143l-26 25.715q-5.428 5.428-12.857 5.428t-12.857-5.428l-116.572-116.286-64.572 64.572q-5.428 5.428-12.857 5.428t-12.857-5.428l-26-25.714q-5.143-5.143-5.143-13.143 0-7.714 5.143-12.857l103.428-103.428q5.428-5.428 12.857-5.428 7.714 0 13.143 5.428l155.143 155.143q5.143 5.143 5.143 12.857zM438.857 219.429q0-59.714-29.428-110.143t-79.857-79.857-110.143-29.428-110.143 29.428-79.857 79.857-29.428 110.143 29.428 110.143 79.857 79.857 110.143 29.428 110.143-29.428 79.857-79.857 29.428-110.143z" />
<glyph unicode="&#xf059;" d="M256 82.286v54.857q0 4-2.571 6.572t-6.571 2.572h-54.857q-4 0-6.571-2.572t-2.571-6.572v-54.857q0-4 2.571-6.572t6.572-2.572h54.857q4 0 6.571 2.572t2.572 6.572zM329.143 274.286q0 25.143-15.857 46.572t-39.572 33.143-48.572 11.714q-69.428 0-106-60.857-4.285-6.857 2.285-12l37.715-28.572q2-1.714 5.428-1.714 4.572 0 7.143 3.428 15.143 19.429 24.571 26.286 9.714 6.857 24.572 6.857 13.714 0 24.428-7.428t10.714-16.857q0-10.857-5.714-17.428t-19.428-12.857q-18-8-33-24.714t-15-35.857v-10.286q0-4 2.571-6.572t6.571-2.572h54.857q4 0 6.571 2.572t2.572 6.572q0 5.428 6.143 14.143t15.572 14.143q9.143 5.143 14 8.143t13.143 10 12.714 13.714 8 17.286 3.572 23.143zM438.857 219.429q0-59.714-29.428-110.143t-79.857-79.857-110.143-29.428-110.143 29.428-79.857 79.857-29.428 110.143 29.428 110.143 79.857 79.857 110.143 29.428 110.143-29.428 79.857-79.857 29.428-110.143z" />
<glyph unicode="&#xf05e;" d="M374.857 220.286q0 46-24.857 84.286l-215.429-215.143q39.143-25.428 84.857-25.428 31.714 0 60.428 12.428t49.572 33.286 33.143 49.857 12.286 60.714zM89.428 134.857l215.714 215.428q-38.572 26-85.714 26-42.286 0-78-20.857t-56.572-56.857-20.857-78.285q0-46.286 25.428-85.428zM438.857 220.286q0-44.857-17.428-85.714t-46.714-70.286-70-46.857-85.286-17.428-85.286 17.428-70 46.857-46.715 70.286-17.428 85.714 17.428 85.572 46.715 70.143 70 46.857 85.286 17.428 85.286-17.428 70-46.857 46.714-70.143 17.428-85.572z" />
<glyph unicode="&#xf067;" d="M402.286 265.143v-54.857q0-11.428-8-19.428t-19.428-8h-118.857v-118.857q0-11.428-8-19.428t-19.428-8h-54.857q-11.429 0-19.429 8t-8 19.428v118.857h-118.857q-11.428 0-19.428 8t-8 19.428v54.857q0 11.429 8 19.429t19.428 8h118.857v118.857q0 11.429 8 19.429t19.428 8h54.857q11.429 0 19.429-8t8-19.429v-118.857h118.857q11.428 0 19.428-8t8-19.428z" horiz-adv-x="403" />
<glyph unicode="&#xf068;" d="M402.286 265.143v-54.857q0-11.428-8-19.428t-19.428-8h-347.428q-11.428 0-19.428 8t-8 19.428v54.857q0 11.429 8 19.429t19.428 8h347.428q11.428 0 19.428-8t8-19.428z" horiz-adv-x="403" />
<glyph unicode="&#xf06a;" d="M219.429 438.857q59.715 0 110.143-29.428t79.857-79.857 29.428-110.143-29.428-110.143-79.857-79.857-110.143-29.428-110.143 29.428-79.857 79.857-29.428 110.143 29.428 110.143 79.857 79.857 110.143 29.428zM256 82.572v54.286q0 4-2.571 6.714t-6.286 2.714h-54.857q-3.714 0-6.572-2.857t-2.857-6.572v-54.286q0-3.714 2.857-6.572t6.572-2.857h54.857q3.714 0 6.286 2.714t2.571 6.714zM255.429 180.857l5.143 177.428q0 3.428-2.857 5.143-2.857 2.285-6.857 2.285h-62.857q-4 0-6.857-2.285-2.857-1.715-2.857-5.143l4.857-177.428q0-2.857 2.857-5t6.857-2.143h52.857q4 0 6.714 2.143t3 5z" />
<glyph unicode="&#xf06b;" d="M265.143 88v204.571h-91.428v-204.571q0-7.143 5.143-11t13.143-3.857h54.857q8 0 13.143 3.857t5.143 11zM134.857 329.143h55.715l-36 46q-7.428 8.857-19.714 8.857-11.428 0-19.428-8t-8-19.428 8-19.428 19.428-8zM331.428 356.572q0 11.429-8 19.429t-19.428 8q-12.286 0-19.714-8.857l-35.714-46h55.428q11.428 0 19.428 8t8 19.428zM438.857 283.429v-91.428q0-4-2.572-6.572t-6.572-2.572h-27.428v-118.857q0-11.428-8-19.428t-19.428-8h-310.857q-11.428 0-19.428 8t-8 19.428v118.857h-27.428q-4 0-6.572 2.572t-2.571 6.572v91.428q0 4 2.571 6.572t6.572 2.571h125.715q-26.572 0-45.285 18.715t-18.715 45.286 18.715 45.285 45.285 18.715q30.572 0 48-22l36.572-47.143 36.572 47.143q17.428 22 48 22 26.572 0 45.286-18.715t18.714-45.285-18.714-45.286-45.286-18.714h125.714q4 0 6.572-2.572t2.572-6.571z" />
<glyph unicode="&#xf071;" d="M292.572 82.572v54.286q0 4-2.714 6.714t-6.428 2.714h-54.857q-3.714 0-6.429-2.714t-2.714-6.714v-54.286q0-4 2.714-6.714t6.428-2.714h54.857q3.714 0 6.428 2.714t2.714 6.714zM292 189.429l5.143 131.143q0 3.429-2.857 5.429-3.714 3.143-6.857 3.143h-62.857q-3.143 0-6.857-3.143-2.857-2-2.857-6l4.857-130.572q0-2.857 2.857-4.714t6.857-1.857h52.857q4 0 6.714 1.857t3 4.714zM288 456.286l219.428-402.285q10-18-0.572-36-4.857-8.286-13.286-13.143t-18.143-4.857h-438.857q-9.715 0-18.143 4.857t-13.286 13.143q-10.572 18-0.572 36l219.429 402.286q4.857 8.857 13.429 14t18.572 5.143 18.572-5.143 13.428-14z" />
<glyph unicode="&#xf077;" d="M460.286 128q0-15.143-10.572-25.714l-21.428-21.428q-10.857-10.857-26-10.857-15.428 0-25.714 10.857l-138.857 138.572-138.857-138.572q-10.285-10.857-25.715-10.857t-25.715 10.857l-21.428 21.428q-10.857 10.286-10.857 25.714 0 15.143 10.857 26l186 186q10.572 10.571 25.714 10.571 14.857 0 26-10.571l185.714-186q10.857-10.857 10.857-26z" horiz-adv-x="476" />
<glyph unicode="&#xf078;" d="M460.286 274.286q0-15.143-10.572-25.714l-186-186q-10.857-10.857-26-10.857-15.428 0-25.714 10.857l-186 186q-10.857 10.286-10.857 25.714 0 15.143 10.857 26l21.143 21.428q11.143 10.572 26 10.572 15.143 0 25.715-10.572l138.857-138.857 138.857 138.857q10.572 10.572 25.714 10.572 14.857 0 26-10.572l21.428-21.428q10.572-11.143 10.572-26z" horiz-adv-x="476" />
<glyph unicode="&#xf07a;" d="M0 384q0 7.428 5.428 12.857t12.857 5.428h73.143q4.572 0 8.143-1.857t5.715-4.428 3.715-7 2.143-7.572 1.572-8.428 1.285-7.286h343.143q7.428 0 12.857-5.429t5.428-12.857v-146.286q0-6.857-4.572-12.143t-11.714-6.143l-298.286-34.857q0.286-2 1.286-6.143t1.714-7.572 0.714-6.286q0-4.572-6.857-18.286h262.857q7.428 0 12.857-5.428t5.428-12.857-5.428-12.857-12.857-5.428h-292.572q-7.428 0-12.857 5.428t-5.428 12.857q0 4 3.143 11.286t8.428 17 5.857 10.857l-50.572 235.143h-58.285q-7.428 0-12.857 5.429t-5.428 12.857zM109.715 36.572q0 15.143 10.715 25.857t25.857 10.714 25.857-10.714 10.714-25.857-10.714-25.857-25.857-10.714-25.857 10.714-10.715 25.857zM365.714 36.572q0 15.143 10.714 25.857t25.857 10.714 25.857-10.714 10.714-25.857-10.714-25.857-25.857-10.714-25.857 10.714-10.714 25.857z" horiz-adv-x="476" />
<glyph unicode="&#xf085;" d="M256 219.429q0 30.286-21.428 51.714t-51.714 21.428-51.714-21.428-21.428-51.714 21.428-51.714 51.714-21.428 51.714 21.428 21.428 51.714zM475.428 73.143q0 14.857-10.857 25.714t-25.714 10.857-25.714-10.857-10.857-25.714q0-15.143 10.714-25.857t25.857-10.714 25.857 10.714 10.714 25.857zM475.428 365.714q0 14.857-10.857 25.715t-25.714 10.857-25.714-10.857-10.857-25.715q0-15.143 10.714-25.857t25.857-10.714 25.857 10.714 10.714 25.857zM365.714 245.429v-52.857q0-2.857-2-5.572t-4.572-3l-44.286-6.857q-3.143-10-9.143-21.714 9.714-13.714 25.714-32.857 2-2.857 2-5.714 0-3.428-2-5.428-6.572-8.572-23.572-25.572t-22.428-17q-3.143 0-6 2l-32.857 25.714q-10.571-5.428-22-8.857-3.143-30.857-6.571-44.286-2-6.857-8.572-6.857h-53.143q-3.143 0-5.714 2.143t-2.857 5l-6.572 43.714q-9.714 2.857-21.428 8.857l-33.715-25.428q-2-2-5.715-2-3.143 0-6 2.286-41.143 38-41.143 45.714 0 2.572 2 5.428 2.857 4 11.715 15.143t13.428 17.428q-6.572 12.572-10 23.428l-43.428 6.857q-2.857 0.286-4.857 2.714t-2 5.572v52.857q0 2.857 2 5.572t4.572 3l44.285 6.857q3.143 10 9.143 21.715-9.715 13.714-25.715 32.857-2 3.143-2 5.714 0 3.429 2 5.714 6.285 8.572 23.428 25.428t22.572 16.857q3.143 0 6-2l32.857-25.714q9.715 5.143 22 9.143 3.143 30.857 6.572 44 2 6.857 8.572 6.857h53.143q3.143 0 5.714-2.143t2.857-5l6.572-43.714q9.714-2.857 21.428-8.857l33.714 25.428q2.286 2 5.714 2 3.143 0 6-2.286 41.143-38 41.143-45.714 0-2.572-2-5.428-3.428-4.572-12-15.428t-12.857-17.143q6.572-13.714 9.714-23.428l43.428-6.572q2.857-0.572 4.857-3t2-5.572zM548.572 93.143v-40q0-4.572-42.572-8.857-3.428-7.714-8.572-14.857 14.572-32.286 14.572-39.428 0-1.143-1.143-2-34.857-20.286-35.428-20.286-2.286 0-13.143 13.429t-14.857 19.428q-5.714-0.572-8.572-0.572t-8.572 0.572q-4-6-14.857-19.428t-13.143-13.429q-0.572 0-35.428 20.286-1.143 0.857-1.143 2 0 7.143 14.572 39.428-5.143 7.143-8.572 14.857-42.572 4.286-42.572 8.857v40q0 4.572 42.572 8.857 3.714 8.286 8.572 14.857-14.572 32.286-14.572 39.428 0 1.143 1.143 2 1.143 0.572 10 5.714t16.857 9.714 8.572 4.572q2.286 0 13.143-13.286t14.857-19.286q5.714 0.572 8.572 0.572t8.572-0.572q14.572 20.286 26.286 32l1.714 0.572q1.143 0 35.428-20 1.143-0.857 1.143-2 0-7.143-14.572-39.428 4.857-6.572 8.572-14.857 42.572-4.286 42.572-8.857zM548.572 385.714v-40q0-4.572-42.572-8.857-3.428-7.714-8.572-14.857 14.572-32.286 14.572-39.428 0-1.143-1.143-2-34.857-20.286-35.428-20.286-2.286 0-13.143 13.428t-14.857 19.428q-5.714-0.572-8.572-0.572t-8.572 0.572q-4-6-14.857-19.428t-13.143-13.428q-0.572 0-35.428 20.286-1.143 0.857-1.143 2 0 7.143 14.572 39.428-5.143 7.143-8.572 14.857-42.572 4.286-42.572 8.857v40q0 4.571 42.572 8.857 3.714 8.286 8.572 14.857-14.572 32.285-14.572 39.428 0 1.143 1.143 2 1.143 0.572 10 5.714t16.857 9.714 8.572 4.572q2.286 0 13.143-13.286t14.857-19.285q5.714 0.571 8.572 0.571t8.572-0.571q14.572 20.286 26.286 32l1.714 0.571q1.143 0 35.428-20 1.143-0.857 1.143-2 0-7.143-14.572-39.428 4.857-6.572 8.572-14.857 42.572-4.286 42.572-8.857z" horiz-adv-x="549" />
<glyph unicode="&#xf098;" d="M365.714 134.572q0 3.143-0.572 4.572-0.857 2.286-11 8.428t-25.286 14.143l-15.143 8.286q-1.428 0.857-5.428 3.714t-7.143 4.286-6 1.428q-5.143 0-13.428-9.286t-16.286-18.714-12.572-9.428q-2 0-4.714 1t-4.428 1.857-4.857 2.714-4 2.428q-28.285 15.714-48.715 36.143t-36.143 48.714q-0.571 0.857-2.429 4t-2.714 4.857-1.857 4.429-1 4.714q0 3.714 5.857 9.572t12.857 11 12.857 11.286 5.857 10.428q0 2.857-1.429 6t-4.286 7.143-3.714 5.429q-0.857 1.714-4.286 8.143t-7.143 13-7.571 13.572-7.143 11.572-4.714 5.143-4.571 0.572q-13.715 0-28.857-6.286-13.143-6-22.857-27t-9.715-37.285q0-4.572 0.715-9.714t1.428-8.714 2.572-9.428 2.857-8.428 3.572-9.428 3.143-8.572q17.143-46.857 61.857-91.572t91.572-61.857q1.714-0.572 8.572-3.143t9.428-3.572 8.428-2.857 9.428-2.572 8.714-1.428 9.714-0.714q16.286 0 37.286 9.714t27 22.857q6.286 15.143 6.286 28.857zM438.857 356.572v-274.286q0-34-24.143-58.143t-58.143-24.143h-274.286q-34 0-58.143 24.143t-24.143 58.143v274.286q0 34 24.143 58.143t58.143 24.143h274.286q34 0 58.143-24.143t24.143-58.143z" />
<glyph unicode="&#xf0d1;" d="M182.857 73.143q0 14.857-10.857 25.714t-25.714 10.857-25.715-10.857-10.857-25.714 10.857-25.714 25.715-10.857 25.714 10.857 10.857 25.714zM73.143 219.429h109.715v73.143h-45.143q-3.714 0-6.286-2.571l-55.715-55.714q-2.572-2.572-2.572-6.286v-8.572zM438.857 73.143q0 14.857-10.857 25.714t-25.714 10.857-25.714-10.857-10.857-25.714 10.857-25.714 25.714-10.857 25.714 10.857 10.857 25.714zM512 384v-292.572q0-4.286-1.143-7.572t-3.857-5.286-4.714-3.286-6.714-1.714-6.428-0.572-7.286 0-6.428 0.143q0-30.286-21.428-51.714t-51.714-21.428-51.714 21.428-21.428 51.714h-109.714q0-30.286-21.428-51.714t-51.714-21.428-51.715 21.428-21.428 51.714h-18.285q-0.857 0-6.428-0.143t-7.285 0-6.428 0.572-6.715 1.714-4.715 3.286-3.857 5.286-1.143 7.572q0 7.428 5.428 12.857t12.857 5.428v91.428q0 2.286-0.143 10t0 10.857 0.715 9.857 1.857 10.572 4 8.714 6.428 8.572l56.572 56.572q5.428 5.428 14.428 9.143t16.715 3.714h45.715v54.857q0 7.428 5.428 12.857t12.857 5.429h292.572q7.428 0 12.857-5.429t5.428-12.857z" />
<glyph unicode="&#xf0d7;" d="M292.572 274.286q0-7.428-5.428-12.857l-128-128q-5.428-5.428-12.857-5.428t-12.857 5.428l-128 128q-5.428 5.428-5.428 12.857t5.428 12.857 12.857 5.428h256q7.428 0 12.857-5.428t5.428-12.857z" horiz-adv-x="293" />
<glyph unicode="&#xf0d8;" d="M292.572 128q0-7.428-5.428-12.857t-12.857-5.428h-256q-7.428 0-12.857 5.428t-5.428 12.857 5.428 12.857l128 128q5.429 5.428 12.857 5.428t12.857-5.428l128-128q5.428-5.428 5.428-12.857z" horiz-adv-x="293" />
<glyph unicode="&#xf0d9;" d="M182.857 347.429v-256q0-7.428-5.429-12.857t-12.857-5.428-12.857 5.428l-128 128q-5.428 5.428-5.428 12.857t5.428 12.857l128 128q5.428 5.428 12.857 5.428t12.857-5.428 5.428-12.857z" horiz-adv-x="183" />
<glyph unicode="&#xf0da;" d="M164.571 219.429q0-7.428-5.429-12.857l-128-128q-5.428-5.428-12.857-5.428t-12.857 5.428-5.428 12.857v256q0 7.428 5.428 12.857t12.857 5.428 12.857-5.428l128-128q5.428-5.428 5.428-12.857z" horiz-adv-x="183" />
<glyph unicode="&#xf0e8;" d="M512 118.857v-91.428q0-11.428-8-19.428t-19.428-8h-91.428q-11.428 0-19.428 8t-8 19.428v91.428q0 11.428 8 19.428t19.428 8h27.428v54.857h-146.286v-54.857h27.428q11.428 0 19.428-8t8-19.428v-91.428q0-11.428-8-19.428t-19.428-8h-91.428q-11.428 0-19.428 8t-8 19.428v91.428q0 11.428 8 19.428t19.428 8h27.428v54.857h-146.286v-54.857h27.428q11.428 0 19.428-8t8-19.428v-91.428q0-11.428-8-19.428t-19.428-8h-91.428q-11.428 0-19.428 8t-8 19.428v91.428q0 11.428 8 19.428t19.428 8h27.428v54.857q0 14.857 10.857 25.714t25.715 10.857h146.286v54.857h-27.428q-11.428 0-19.428 8t-8 19.428v91.428q0 11.428 8 19.428t19.428 8h91.428q11.428 0 19.428-8t8-19.428v-91.428q0-11.428-8-19.428t-19.428-8h-27.428v-54.857h146.286q14.857 0 25.714-10.857t10.857-25.714v-54.857h27.428q11.428 0 19.428-8t8-19.428z" />
<glyph unicode="&#xf0f6;" d="M0-9.143v457.143q0 11.428 8 19.428t19.428 8h256q11.428 0 25.143-5.714t21.714-13.714l89.143-89.143q8-8 13.714-21.714t5.714-25.143v-329.143q0-11.428-8-19.428t-19.428-8h-384q-11.428 0-19.428 8t-8 19.428zM36.572 0h365.714v292.572h-118.857q-11.428 0-19.428 8t-8 19.428v118.857h-219.429v-438.857zM109.715 82.286v18.286q0 4 2.572 6.572t6.572 2.572h201.143q4 0 6.572-2.572t2.572-6.572v-18.286q0-4-2.572-6.572t-6.572-2.572h-201.143q-4 0-6.572 2.572t-2.572 6.572zM109.715 155.429v18.286q0 4 2.572 6.572t6.572 2.572h201.143q4 0 6.572-2.572t2.572-6.572v-18.286q0-4-2.572-6.572t-6.572-2.572h-201.143q-4 0-6.572 2.572t-2.572 6.572zM109.715 228.572v18.286q0 4 2.572 6.572t6.572 2.571h201.143q4 0 6.572-2.571t2.572-6.572v-18.286q0-4-2.572-6.572t-6.572-2.572h-201.143q-4 0-6.572 2.571t-2.572 6.572zM292.572 329.143h107.428q-2.857 8.286-6.286 11.714l-89.428 89.428q-3.428 3.428-11.714 6.286v-107.428z" />
<glyph unicode="&#xf0fe;" d="M365.714 201.143v36.572q0 7.428-5.428 12.857t-12.857 5.429h-91.428v91.428q0 7.428-5.428 12.857t-12.857 5.429h-36.571q-7.428 0-12.857-5.429t-5.429-12.857v-91.428h-91.428q-7.428 0-12.857-5.428t-5.428-12.857v-36.571q0-7.428 5.428-12.857t12.857-5.428h91.428v-91.428q0-7.428 5.428-12.857t12.857-5.428h36.571q7.428 0 12.857 5.428t5.429 12.857v91.428h91.428q7.428 0 12.857 5.428t5.428 12.857zM438.857 356.572v-274.286q0-34-24.143-58.143t-58.143-24.143h-274.286q-34 0-58.143 24.143t-24.143 58.143v274.286q0 34 24.143 58.143t58.143 24.143h274.286q34 0 58.143-24.143t24.143-58.143z" />
<glyph unicode="&#xf104;" d="M179.143 320q0-3.714-2.857-6.571l-112.285-112.286 112.285-112.286q2.857-2.857 2.857-6.572t-2.857-6.572l-14.286-14.286q-2.857-2.857-6.572-2.857t-6.572 2.857l-133.143 133.143q-2.857 2.857-2.857 6.572t2.857 6.572l133.143 133.143q2.857 2.857 6.572 2.857t6.572-2.857l14.286-14.286q2.857-2.857 2.857-6.571z" horiz-adv-x="183" />
<glyph unicode="&#xf105;" d="M170 201.143q0-3.714-2.857-6.572l-133.143-133.143q-2.857-2.857-6.572-2.857t-6.572 2.857l-14.286 14.286q-2.857 2.857-2.857 6.572t2.857 6.572l112.285 112.286-112.285 112.286q-2.857 2.857-2.857 6.572t2.857 6.572l14.285 14.286q2.857 2.857 6.572 2.857t6.572-2.857l133.143-133.143q2.857-2.857 2.857-6.572z" horiz-adv-x="183" />
<glyph unicode="&#xf106;" d="M307.143 137.143q0-3.714-2.857-6.572l-14.286-14.286q-2.857-2.857-6.572-2.857t-6.572 2.857l-112.286 112.286-112.285-112.286q-2.857-2.857-6.572-2.857t-6.572 2.857l-14.285 14.286q-2.857 2.857-2.857 6.572t2.857 6.572l133.143 133.143q2.857 2.857 6.571 2.857t6.572-2.857l133.143-133.143q2.857-2.857 2.857-6.572z" horiz-adv-x="329" />
<glyph unicode="&#xf107;" d="M307.143 265.143q0-3.714-2.857-6.572l-133.143-133.143q-2.857-2.857-6.571-2.857t-6.572 2.857l-133.143 133.143q-2.857 2.857-2.857 6.572t2.857 6.572l14.285 14.286q2.857 2.857 6.572 2.857t6.572-2.857l112.285-112.286 112.285 112.286q2.857 2.857 6.572 2.857t6.572-2.857l14.286-14.286q2.857-2.857 2.857-6.572z" horiz-adv-x="329" />
<glyph unicode="&#xf128;" d="M201.143 116.572v-68.572q0-4.572-3.429-8t-8-3.428h-68.572q-4.572 0-8 3.428t-3.428 8v68.572q0 4.572 3.428 8t8 3.428h68.572q4.572 0 8-3.428t3.429-8zM291.428 288q0-15.428-4.428-28.857t-10-21.857-15.714-17-16.428-12.428-17.428-10.143q-11.714-6.572-19.572-18.572t-7.857-19.143q0-4.857-3.429-9.286t-8-4.428h-68.572q-4.285 0-7.285 5.286t-3 10.714v12.857q0 23.714 18.571 44.714t40.857 31q16.857 7.714 24 16t7.143 21.714q0 12-13.286 21.143t-30.714 9.143q-18.572 0-30.857-8.286-10-7.143-30.572-32.857-3.715-4.571-8.857-4.571-3.428 0-7.143 2.286l-46.857 35.714q-3.715 2.857-4.428 7.143t1.572 8q45.715 76 132.571 76 22.857 0 46-8.857t41.714-23.714 30.286-36.429 11.714-45.285z" horiz-adv-x="293" />
<glyph unicode="&#xf129;" d="M182.857 91.429v-36.572q0-7.428-5.429-12.857t-12.857-5.428h-146.286q-7.428 0-12.857 5.428t-5.428 12.857v36.572q0 7.428 5.428 12.857t12.857 5.428h18.285v109.714h-18.285q-7.428 0-12.857 5.428t-5.428 12.857v36.572q0 7.428 5.428 12.857t12.857 5.429h109.715q7.428 0 12.857-5.428t5.429-12.857v-164.571h18.286q7.428 0 12.857-5.428t5.429-12.857zM146.286 420.572v-54.857q0-7.429-5.428-12.857t-12.857-5.428h-73.143q-7.428 0-12.857 5.428t-5.428 12.857v54.857q0 7.429 5.428 12.857t12.857 5.428h73.143q7.429 0 12.857-5.428t5.428-12.857z" horiz-adv-x="183" />
<glyph unicode="&#xf12a;" d="M146.286 118.857v-64q0-7.428-5.428-12.857t-12.857-5.428h-73.143q-7.428 0-12.857 5.428t-5.428 12.857v64q0 7.428 5.428 12.857t12.857 5.428h73.143q7.429 0 12.857-5.428t5.428-12.857zM154.857 420.572l-8-219.428q-0.286-7.428-5.857-12.857t-13-5.428h-73.143q-7.428 0-13 5.428t-5.857 12.857l-8 219.428q-0.285 7.428 5 12.857t12.715 5.428h91.428q7.429 0 12.714-5.428t5-12.857z" horiz-adv-x="183" />
<glyph unicode="&#xf137;" d="M259.714 76.857l29.143 29.143q5.428 5.428 5.428 12.857t-5.428 12.857l-87.714 87.714 87.714 87.714q5.428 5.428 5.428 12.857t-5.428 12.857l-29.143 29.143q-5.428 5.428-12.857 5.428t-12.857-5.428l-129.714-129.714q-5.428-5.428-5.428-12.857t5.428-12.857l129.714-129.714q5.428-5.428 12.857-5.428t12.857 5.428zM438.857 219.429q0-59.714-29.428-110.143t-79.857-79.857-110.143-29.428-110.143 29.428-79.857 79.857-29.428 110.143 29.428 110.143 79.857 79.857 110.143 29.428 110.143-29.428 79.857-79.857 29.428-110.143z" />
<glyph unicode="&#xf138;" d="M204.857 76.857l129.715 129.714q5.428 5.428 5.428 12.857t-5.428 12.857l-129.714 129.714q-5.428 5.429-12.857 5.429t-12.857-5.429l-29.143-29.143q-5.429-5.428-5.429-12.857t5.428-12.857l87.714-87.714-87.714-87.714q-5.428-5.428-5.428-12.857t5.428-12.857l29.143-29.143q5.429-5.428 12.857-5.428t12.857 5.428zM438.857 219.429q0-59.714-29.428-110.143t-79.857-79.857-110.143-29.428-110.143 29.428-79.857 79.857-29.428 110.143 29.428 110.143 79.857 79.857 110.143 29.428 110.143-29.428 79.857-79.857 29.428-110.143z" />
<glyph unicode="&#xf139;" d="M332.857 150l29.143 29.143q5.428 5.428 5.428 12.857t-5.428 12.857l-129.714 129.714q-5.428 5.428-12.857 5.428t-12.857-5.428l-129.714-129.714q-5.428-5.428-5.428-12.857t5.428-12.857l29.143-29.143q5.428-5.428 12.857-5.428t12.857 5.428l87.715 87.714 87.714-87.714q5.428-5.428 12.857-5.428t12.857 5.428zM438.857 219.429q0-59.714-29.428-110.143t-79.857-79.857-110.143-29.428-110.143 29.428-79.857 79.857-29.428 110.143 29.428 110.143 79.857 79.857 110.143 29.428 110.143-29.428 79.857-79.857 29.428-110.143z" />
</font>
</defs>
</svg>
